A Suitable Boy S01E01

TV Series
A Suitable Boy S01E01

A Suitable Boy S01E01
MOV | 1280x720 | English | H264 @ 4890 kbps | AAC @ 127 kbps | 58 min 36 s | 2.06 GiB




bcef66f15a375e171563029abc752170.mp4 (2.1 GB)



General
Complete name : ./bcef66f15a375e171563029abc752170.mp4
Format : MPEG-4
Format profile : Base Media
Codec ID : isom (isom/iso2/avc1/mp41)
File size : 2.06 GiB
Duration : 58 min 36 s
Overall bit rate : 5 026 kb/s
Writing application : Lavf58.29.100

Video
ID : 1
Format : AVC
Format/Info : Advanced Video Codec
Format profile : High@L3.2
Format settings : CABAC / 4 Ref Frames
Format settings, CABAC : Yes
Format settings, RefFrames : 4 frames
Codec ID : avc1
Codec ID/Info : Advanced Video Coding
Duration : 58 min 36 s
Bit rate : 4 891 kb/s
Width : 1 280 pixels
Height : 720 pixels
Display aspect ratio : 16:9
Frame rate mode : Constant
Frame rate : 50.000 FPS
Color space : YUV
Chroma subsampling : 4:2:0
Bit depth : 8 bits
Scan type : Progressive
Bits/(Pixel*Frame) : 0.106
Stream size : 2.00 GiB (97%)
Color range : Limited
Color primaries : BT.709
Transfer characteristics : BT.709
Matrix coefficients : BT.709

Audio
ID : 2
Format : AAC
Format/Info : Advanced Audio Codec
Format profile : LC
Codec ID : mp4a-40-2
Duration : 58 min 36 s
Bit rate mode : Constant
Bit rate : 128 kb/s
Channel(s) : 2 channels
Channel positions : Front: L R
Sampling rate : 48.0 kHz
Frame rate : 46.875 FPS (1024 SPF)
Compression mode : Lossy
Stream size : 53.7 MiB (3%)
Language : English
Default : Yes
Alternate group : 1





A Suitable Boy S01E01


A Suitable Boy S01E01


A Suitable Boy S01E01


A Suitable Boy S01E01