A Suitable Boy S01E01

TV Series
A Suitable Boy S01E01

A Suitable Boy S01E01
WEB-DL | MKV | 1920x1080 | English | H264 @ 6697 kbps | AAC @ 128 kbps | 58 min 36 s | 2.80 GiB
Subtitles: English

A vast, panoramic tale charting the fortunes of four large families and exploring India and its rich and varied culture at a crucial point in its history.

c575120ed059400fa634617c721260bf.mkv (2.8 GB)



General
Unique ID : 274619798008874618463570592546122529610 (0xCE99D9672EA9A2FEABB3BB2D5D3A7B4A)
Complete name : ./c575120ed059400fa634617c721260bf.mkv
Format : Matroska
Format version : Version 4 / Version 2
File size : 2.80 GiB
Duration : 58 min 36 s
Overall bit rate mode : Variable
Overall bit rate : 6 829 kb/s
Encoded date : UTC 2020-08-06 02:40:31
Writing application : mkvmerge v45.0.0 ('Heaven in Pennies') 64-bit
Writing library : libebml v1.3.10 + libmatroska v1.5.2

Video
ID : 1
Format : AVC
Format/Info : Advanced Video Codec
Format profile : High@L4.2
Format settings : CABAC / 4 Ref Frames
Format settings, CABAC : Yes
Format settings, RefFrames : 4 frames
Codec ID : V_MPEG4/ISO/AVC
Duration : 58 min 36 s
Bit rate mode : Variable
Bit rate : 6 697 kb/s
Maximum bit rate : 12.0 Mb/s
Width : 1 920 pixels
Height : 1 080 pixels
Display aspect ratio : 16:9
Frame rate mode : Constant
Frame rate : 50.000 FPS
Color space : YUV
Chroma subsampling : 4:2:0
Bit depth : 8 bits
Scan type : Progressive
Bits/(Pixel*Frame) : 0.065
Stream size : 2.74 GiB (98%)
Default : Yes
Forced : No
Color range : Limited
Color primaries : BT.709
Transfer characteristics : BT.709
Matrix coefficients : BT.709

Audio
ID : 2
Format : AAC
Format/Info : Advanced Audio Codec
Format profile : LC
Codec ID : A_AAC-2
Duration : 58 min 36 s
Bit rate : 128 kb/s
Channel(s) : 2 channels
Channel positions : Front: L R
Sampling rate : 48.0 kHz
Frame rate : 46.875 FPS (1024 SPF)
Compression mode : Lossy
Stream size : 53.7 MiB (2%)
Language : English
Default : Yes
Forced : No

Text
ID : 3
Format : UTF-8
Codec ID : S_TEXT/UTF8
Codec ID/Info : UTF-8 Plain Text
Duration : 57 min 3 s
Bit rate : 45 b/s
Count of elements : 644
Stream size : 19.2 KiB (0%)
Title : SDH
Language : English
Default : No
Forced : No

Menu
00:57:59.000 : en:Credits





A Suitable Boy S01E01


A Suitable Boy S01E01


A Suitable Boy S01E01


A Suitable Boy S01E01