A Suitable Boy S01E04

TV Series
A Suitable Boy S01E04

A Suitable Boy S01E04
MOV | 1280x720 | English | H264 @ 4895 kbps | AAC @ 128 kbps | 58 min 7 s | 2.04 GiB




ce425546d659c0cc0db33d0cb32c170d.mp4 (2.0 GB)



General
Complete name : ./ce425546d659c0cc0db33d0cb32c170d.mp4
Format : MPEG-4
Format profile : Base Media
Codec ID : isom (isom/iso2/avc1/mp41)
File size : 2.04 GiB
Duration : 58 min 7 s
Overall bit rate mode : Variable
Overall bit rate : 5 031 kb/s
Writing application : Lavf58.45.100

Video
ID : 1
Format : AVC
Format/Info : Advanced Video Codec
Format profile : High@L3.2
Format settings : CABAC / 4 Ref Frames
Format settings, CABAC : Yes
Format settings, RefFrames : 4 frames
Codec ID : avc1
Codec ID/Info : Advanced Video Coding
Duration : 58 min 7 s
Bit rate : 4 896 kb/s
Width : 1 280 pixels
Height : 720 pixels
Display aspect ratio : 16:9
Frame rate mode : Constant
Frame rate : 50.000 FPS
Color space : YUV
Chroma subsampling : 4:2:0
Bit depth : 8 bits
Scan type : Progressive
Bits/(Pixel*Frame) : 0.106
Stream size : 1.99 GiB (97%)
Color range : Limited
Color primaries : BT.709
Transfer characteristics : BT.709
Matrix coefficients : BT.709

Audio
ID : 2
Format : AAC
Format/Info : Advanced Audio Codec
Format profile : LC
Codec ID : mp4a-40-2
Duration : 58 min 6 s
Bit rate mode : Variable
Bit rate : 128 kb/s
Maximum bit rate : 130 kb/s
Channel(s) : 2 channels
Channel positions : Front: L R
Sampling rate : 48.0 kHz
Frame rate : 46.875 FPS (1024 SPF)
Compression mode : Lossy
Stream size : 53.2 MiB (3%)
Language : English
Default : Yes
Alternate group : 1





A Suitable Boy S01E04


A Suitable Boy S01E04


A Suitable Boy S01E04


A Suitable Boy S01E04