A Suitable Boy S01E04

TV Series
A Suitable Boy S01E04

A Suitable Boy S01E04
WEB-DL | MKV | 1920x1080 | English | H264 @ 6130 kbps | AAC @ 128 kbps | 58 min 7 s | 2.54 GiB
Subtitles: English




e7e7c6b72c41463ab9034a1b4ebd72e2.mkv (2.5 GB)



General
Unique ID : 234003509790971824805665886704763907780 (0xB00B6FC8F0067BA918B31204DD8FAEC4)
Complete name : ./e7e7c6b72c41463ab9034a1b4ebd72e2.mkv
Format : Matroska
Format version : Version 4 / Version 2
File size : 2.54 GiB
Duration : 58 min 7 s
Overall bit rate mode : Variable
Overall bit rate : 6 263 kb/s
Encoded date : UTC 2020-08-16 23:22:02
Writing application : mkvmerge v45.0.0 ('Heaven in Pennies') 64-bit
Writing library : libebml v1.3.10 + libmatroska v1.5.2

Video
ID : 1
Format : AVC
Format/Info : Advanced Video Codec
Format profile : High@L4.2
Format settings : CABAC / 4 Ref Frames
Format settings, CABAC : Yes
Format settings, RefFrames : 4 frames
Codec ID : V_MPEG4/ISO/AVC
Duration : 58 min 7 s
Bit rate mode : Variable
Bit rate : 6 131 kb/s
Maximum bit rate : 12.0 Mb/s
Width : 1 920 pixels
Height : 1 080 pixels
Display aspect ratio : 16:9
Frame rate mode : Constant
Frame rate : 50.000 FPS
Color space : YUV
Chroma subsampling : 4:2:0
Bit depth : 8 bits
Scan type : Progressive
Bits/(Pixel*Frame) : 0.059
Stream size : 2.49 GiB (98%)
Default : Yes
Forced : No
Color range : Limited
Color primaries : BT.709
Transfer characteristics : BT.709
Matrix coefficients : BT.709

Audio
ID : 2
Format : AAC
Format/Info : Advanced Audio Codec
Format profile : LC
Codec ID : A_AAC-2
Duration : 58 min 6 s
Bit rate : 128 kb/s
Channel(s) : 2 channels
Channel positions : Front: L R
Sampling rate : 48.0 kHz
Frame rate : 46.875 FPS (1024 SPF)
Compression mode : Lossy
Stream size : 53.2 MiB (2%)
Language : English
Default : Yes
Forced : No

Text
ID : 3
Format : UTF-8
Codec ID : S_TEXT/UTF8
Codec ID/Info : UTF-8 Plain Text
Duration : 57 min 58 s
Bit rate : 53 b/s
Count of elements : 818
Stream size : 22.5 KiB (0%)
Title : SDH
Language : English
Default : No
Forced : No





A Suitable Boy S01E04


A Suitable Boy S01E04


A Suitable Boy S01E04


A Suitable Boy S01E04