Absurd Planet S01E04

TV Series
Absurd Planet S01E04

Absurd Planet S01E04
WEB-DL | MKV | 1280x720 | English | H264 @ 4208 kbps | E-AC-3 @ 640 kbps | 19 min 3 s | 662 MiB
Subtitles: ภาษาไทย, Français, tiếng Việt, Español, Magyar, 日本語, עברית, 한국어, Русский, Ελληνικά, Nederlands, Dansk, Bahasa Indonesia, Bokmål, 中文, Suomi, Polski, Türkçe, English, Română, العربية, Deutsch, Svenska, Italiano, Português, Čeština
Genre: Documentary


A cast of quirky critters and Mother Nature herself narrate this funny science series, which peeks into the lives of Earth's most incredible animals.

4dcc213978004494a0266f425a343a0a.mkv (661.8 MB)



General
Unique ID : 320597887869466345630063709025728520066 (0xF130E84096200D695A77F510C740DF82)
Complete name : ./4dcc213978004494a0266f425a343a0a.mkv
Format : Matroska
Format version : Version 4 / Version 2
File size : 662 MiB
Duration : 19 min 3 s
Overall bit rate mode : Variable
Overall bit rate : 4 855 kb/s
Movie name : Absurd.Planet.S01E04.The.Cycle.of.Life.720p.NF.WEB-DL.DDP5.1.H.264-NTb
Encoded date : UTC 2020-04-22 07:34:05
Writing application : mkvmerge v45.0.0 ('Heaven in Pennies') 64-bit
Writing library : libebml v1.3.10 + libmatroska v1.5.2

Video
ID : 1
Format : AVC
Format/Info : Advanced Video Codec
Format profile : Main@L3.1
Format settings : CABAC / 3 Ref Frames
Format settings, CABAC : Yes
Format settings, RefFrames : 3 frames
Codec ID : V_MPEG4/ISO/AVC
Duration : 19 min 3 s
Bit rate mode : Variable
Bit rate : 4 208 kb/s
Nominal bit rate : 4 420 kb/s
Maximum bit rate : 6 630 kb/s
Width : 1 280 pixels
Height : 720 pixels
Display aspect ratio : 16:9
Frame rate mode : Constant
Frame rate : 23.976 (24000/1001) FPS
Color space : YUV
Chroma subsampling : 4:2:0
Bit depth : 8 bits
Scan type : Progressive
Bits/(Pixel*Frame) : 0.190
Stream size : 574 MiB (87%)
Writing library : x264 core 148 r2717 0d2410d
Encoding settings : cabac=1 / ref=3 / deblock=1:0:0 / analyse=0x1:0x111 / me=umh / subme=10 / psy=1 / psy_rd=1.00:0.00 / mixed_ref=1 / me_range=24 / chroma_me=1 / trellis=2 / 8x8dct=0 / cqm=0 / deadzone=21,11 / fast_pskip=1 / chroma_qp_offset=-2 / threads=8 / lookahead_threads=1 / sliced_threads=0 / nr=0 / decimate=1 / interlaced=0 / bluray_compat=0 / stitchable=1 / constrained_intra=0 / bframes=2 / b_pyramid=0 / b_adapt=2 / b_bias=0 / direct=3 / weightb=1 / open_gop=0 / weightp=2 / keyint=250 / keyint_min=23 / scenecut=0 / intra_refresh=0 / rc_lookahead=48 / rc=2pass / mbtree=1 / bitrate=4420 / ratetol=1.0 / qcomp=0.50 / qpmin=6 / qpmax=51 / qpstep=4 / cplxblur=20.0 / qblur=0.5 / vbv_maxrate=6630 / vbv_bufsize=8840 / nal_hrd=vbr / filler=0 / ip_ratio=1.40 / aq=1:1.00
Default : Yes
Forced : No

Audio
ID : 2
Format : E-AC-3
Format/Info : Enhanced Audio Coding 3
Format settings, Endianness : Big
Codec ID : A_EAC3
Duration : 19 min 3 s
Bit rate mode : Constant
Bit rate : 640 kb/s
Channel(s) : 6 channels
Channel positions : Front: L C R, Side: L R, LFE
Sampling rate : 48.0 kHz
Frame rate : 187.500 FPS (256 SPF)
Compression mode : Lossy
Stream size : 87.2 MiB (13%)
Language : English
Service kind : Complete Main
Default : Yes
Forced : No

Text #1
ID : 3
Format : UTF-8
Codec ID : S_TEXT/UTF8
Codec ID/Info : UTF-8 Plain Text
Duration : 17 min 55 s
Bit rate : 95 b/s
Count of elements : 347
Stream size : 12.5 KiB (0%)
Title : SDH
Language : English
Default : No
Forced : No

Text #2
ID : 4
Format : UTF-8
Codec ID : S_TEXT/UTF8
Codec ID/Info : UTF-8 Plain Text
Duration : 17 min 52 s
Bit rate : 129 b/s
Count of elements : 308
Stream size : 16.9 KiB (0%)
Language : Arabic
Default : No
Forced : No

Text #3
ID : 5
Format : UTF-8
Codec ID : S_TEXT/UTF8
Codec ID/Info : UTF-8 Plain Text
Duration : 17 min 51 s
Bit rate : 74 b/s
Count of elements : 279
Stream size : 9.75 KiB (0%)
Language : Czech
Default : No
Forced : No

Text #4
ID : 6
Format : UTF-8
Codec ID : S_TEXT/UTF8
Codec ID/Info : UTF-8 Plain Text
Duration : 17 min 52 s
Bit rate : 84 b/s
Count of elements : 308
Stream size : 11.1 KiB (0%)
Language : Danish
Default : No
Forced : No

Text #5
ID : 7
Format : UTF-8
Codec ID : S_TEXT/UTF8
Codec ID/Info : UTF-8 Plain Text
Duration : 17 min 52 s
Bit rate : 92 b/s
Count of elements : 288
Stream size : 12.2 KiB (0%)
Language : German
Default : No
Forced : No

Text #6
ID : 8
Format : UTF-8
Codec ID : S_TEXT/UTF8
Codec ID/Info : UTF-8 Plain Text
Duration : 17 min 52 s
Bit rate : 130 b/s
Count of elements : 309
Stream size : 17.1 KiB (0%)
Language : Greek
Default : No
Forced : No

Text #7
ID : 9
Format : UTF-8
Codec ID : S_TEXT/UTF8
Codec ID/Info : UTF-8 Plain Text
Duration : 17 min 52 s
Bit rate : 88 b/s
Count of elements : 305
Stream size : 11.6 KiB (0%)
Title : Latin American
Language : Spanish
Default : No
Forced : No

Text #8
ID : 10
Format : UTF-8
Codec ID : S_TEXT/UTF8
Codec ID/Info : UTF-8 Plain Text
Duration : 17 min 52 s
Bit rate : 88 b/s
Count of elements : 289
Stream size : 11.6 KiB (0%)
Title : European
Language : Spanish
Default : No
Forced : No

Text #9
ID : 11
Format : UTF-8
Codec ID : S_TEXT/UTF8
Codec ID/Info : UTF-8 Plain Text
Duration : 17 min 52 s
Bit rate : 73 b/s
Count of elements : 258
Stream size : 9.65 KiB (0%)
Language : Finnish
Default : No
Forced : No

Text #10
ID : 12
Format : UTF-8
Codec ID : S_TEXT/UTF8
Codec ID/Info : UTF-8 Plain Text
Duration : 17 min 52 s
Bit rate : 91 b/s
Count of elements : 306
Stream size : 11.9 KiB (0%)
Language : French
Default : No
Forced : No

Text #11
ID : 13
Format : UTF-8
Codec ID : S_TEXT/UTF8
Codec ID/Info : UTF-8 Plain Text
Duration : 17 min 52 s
Bit rate : 107 b/s
Count of elements : 306
Stream size : 14.1 KiB (0%)
Language : Hebrew
Default : No
Forced : No

Text #12
ID : 14
Format : UTF-8
Codec ID : S_TEXT/UTF8
Codec ID/Info : UTF-8 Plain Text
Duration : 17 min 51 s
Bit rate : 83 b/s
Count of elements : 298
Stream size : 11.0 KiB (0%)
Language : Hungarian
Default : No
Forced : No

Text #13
ID : 15
Format : UTF-8
Codec ID : S_TEXT/UTF8
Codec ID/Info : UTF-8 Plain Text
Duration : 17 min 52 s
Bit rate : 84 b/s
Count of elements : 308
Stream size : 11.1 KiB (0%)
Language : Indonesian
Default : No
Forced : No

Text #14
ID : 16
Format : UTF-8
Codec ID : S_TEXT/UTF8
Codec ID/Info : UTF-8 Plain Text
Duration : 17 min 52 s
Bit rate : 74 b/s
Count of elements : 293
Stream size : 9.79 KiB (0%)
Language : Italian
Default : No
Forced : No

Text #15
ID : 17
Format : UTF-8
Codec ID : S_TEXT/UTF8
Codec ID/Info : UTF-8 Plain Text
Duration : 17 min 52 s
Bit rate : 74 b/s
Count of elements : 288
Stream size : 9.78 KiB (0%)
Language : Japanese
Default : No
Forced : No

Text #16
ID : 18
Format : UTF-8
Codec ID : S_TEXT/UTF8
Codec ID/Info : UTF-8 Plain Text
Duration : 17 min 52 s
Bit rate : 83 b/s
Count of elements : 309
Stream size : 10.9 KiB (0%)
Language : Korean
Default : No
Forced : No

Text #17
ID : 19
Format : UTF-8
Codec ID : S_TEXT/UTF8
Codec ID/Info : UTF-8 Plain Text
Duration : 17 min 52 s
Bit rate : 81 b/s
Count of elements : 293
Stream size : 10.7 KiB (0%)
Language : Norwegian Bokmal
Default : No
Forced : No

Text #18
ID : 20
Format : UTF-8
Codec ID : S_TEXT/UTF8
Codec ID/Info : UTF-8 Plain Text
Duration : 17 min 52 s
Bit rate : 74 b/s
Count of elements : 258
Stream size : 9.72 KiB (0%)
Language : Dutch
Default : No
Forced : No

Text #19
ID : 21
Format : UTF-8
Codec ID : S_TEXT/UTF8
Codec ID/Info : UTF-8 Plain Text
Duration : 17 min 50 s
Bit rate : 81 b/s
Count of elements : 284
Stream size : 10.7 KiB (0%)
Language : Polish
Default : No
Forced : No

Text #20
ID : 22
Format : UTF-8
Codec ID : S_TEXT/UTF8
Codec ID/Info : UTF-8 Plain Text
Duration : 17 min 52 s
Bit rate : 84 b/s
Count of elements : 291
Stream size : 11.1 KiB (0%)
Title : European
Language : Portuguese
Default : No
Forced : No

Text #21
ID : 23
Format : UTF-8
Codec ID : S_TEXT/UTF8
Codec ID/Info : UTF-8 Plain Text
Duration : 17 min 52 s
Bit rate : 84 b/s
Count of elements : 295
Stream size : 11.1 KiB (0%)
Title : Brazilian
Language : Portuguese
Default : No
Forced : No

Text #22
ID : 24
Format : UTF-8
Codec ID : S_TEXT/UTF8
Codec ID/Info : UTF-8 Plain Text
Duration : 17 min 52 s
Bit rate : 89 b/s
Count of elements : 299
Stream size : 11.7 KiB (0%)
Language : Romanian
Default : No
Forced : No

Text #23
ID : 25
Format : UTF-8
Codec ID : S_TEXT/UTF8
Codec ID/Info : UTF-8 Plain Text
Duration : 17 min 52 s
Bit rate : 132 b/s
Count of elements : 290
Stream size : 17.4 KiB (0%)
Language : Russian
Default : No
Forced : No

Text #24
ID : 26
Format : UTF-8
Codec ID : S_TEXT/UTF8
Codec ID/Info : UTF-8 Plain Text
Duration : 17 min 52 s
Bit rate : 81 b/s
Count of elements : 305
Stream size : 10.7 KiB (0%)
Language : Swedish
Default : No
Forced : No

Text #25
ID : 27
Format : UTF-8
Codec ID : S_TEXT/UTF8
Codec ID/Info : UTF-8 Plain Text
Duration : 17 min 52 s
Bit rate : 190 b/s
Count of elements : 309
Stream size : 24.9 KiB (0%)
Language : Thai
Default : No
Forced : No

Text #26
ID : 28
Format : UTF-8
Codec ID : S_TEXT/UTF8
Codec ID/Info : UTF-8 Plain Text
Duration : 17 min 52 s
Bit rate : 83 b/s
Count of elements : 288
Stream size : 11.0 KiB (0%)
Language : Turkish
Default : No
Forced : No

Text #27
ID : 29
Format : UTF-8
Codec ID : S_TEXT/UTF8
Codec ID/Info : UTF-8 Plain Text
Duration : 17 min 52 s
Bit rate : 103 b/s
Count of elements : 309
Stream size : 13.6 KiB (0%)
Language : Vietnamese
Default : No
Forced : No

Text #28
ID : 30
Format : UTF-8
Codec ID : S_TEXT/UTF8
Codec ID/Info : UTF-8 Plain Text
Duration : 17 min 52 s
Bit rate : 69 b/s
Count of elements : 309
Stream size : 9.10 KiB (0%)
Title : Simplified
Language : Chinese
Default : No
Forced : No

Text #29
ID : 31
Format : UTF-8
Codec ID : S_TEXT/UTF8
Codec ID/Info : UTF-8 Plain Text
Duration : 17 min 52 s
Bit rate : 66 b/s
Count of elements : 309
Stream size : 8.74 KiB (0%)
Title : Traditional
Language : Chinese
Default : No
Forced : No





Absurd Planet S01E04


Absurd Planet S01E04


Absurd Planet S01E04


Absurd Planet S01E04


Absurd Planet S01E04