Absurd Planet S01E08

TV Series
Absurd Planet S01E08

Absurd Planet S01E08
WEBRip | MKV | 1920x1080 | English | H264 @ 7165 kbps | E-AC-3 @ 640 kbps | 19 min 47 s | 1.08 GiB
Subtitles: ภาษาไทย, Français, tiếng Việt, Español, Magyar, 日本語, עברית, 한국어, Русский, Ελληνικά, Nederlands, Dansk, Bahasa Indonesia, 中文, Suomi, Polski, Türkçe, English, Română, العربية, Deutsch, Svenska, Italiano, Português, Čeština
Genre: Documentary


A cast of quirky critters and Mother Nature herself narrate this funny science series, which peeks into the lives of Earth's most incredible animals.

ccdbb7fa0d9f13c2efa7a804ecea7e7b.mkv (1.1 GB)



General
Unique ID : 236002271315304660535559946088494431468 (0xB18C625624E38A9BB079808360907CEC)
Complete name : ./ccdbb7fa0d9f13c2efa7a804ecea7e7b.mkv
Format : Matroska
Format version : Version 4 / Version 2
File size : 1.08 GiB
Duration : 19 min 47 s
Overall bit rate mode : Variable
Overall bit rate : 7 803 kb/s
Encoded date : UTC 2020-04-22 20:39:09
Writing application : mkvmerge v11.0.0 ('Alive') 64bit
Writing library : libebml v1.3.4 + libmatroska v1.4.5

Video
ID : 1
Format : AVC
Format/Info : Advanced Video Codec
Format profile : High@L4
Format settings : CABAC / 4 Ref Frames
Format settings, CABAC : Yes
Format settings, RefFrames : 4 frames
Codec ID : V_MPEG4/ISO/AVC
Duration : 19 min 46 s
Bit rate mode : Variable
Bit rate : 7 165 kb/s
Maximum bit rate : 20.0 Mb/s
Width : 1 920 pixels
Height : 1 080 pixels
Display aspect ratio : 16:9
Frame rate mode : Constant
Frame rate : 23.976 (24000/1001) FPS
Color space : YUV
Chroma subsampling : 4:2:0
Bit depth : 8 bits
Scan type : Progressive
Bits/(Pixel*Frame) : 0.144
Stream size : 1 013 MiB (92%)
Writing library : x264 core 148 r2717 0d2410d
Encoding settings : cabac=1 / ref=4 / deblock=1:0:0 / analyse=0x3:0x111 / me=umh / subme=10 / psy=1 / psy_rd=1.00:0.00 / mixed_ref=1 / me_range=120 / chroma_me=1 / trellis=2 / 8x8dct=1 / cqm=0 / deadzone=21,11 / fast_pskip=1 / chroma_qp_offset=-2 / threads=8 / lookahead_threads=2 / sliced_threads=0 / nr=0 / decimate=1 / interlaced=0 / bluray_compat=0 / stitchable=1 / constrained_intra=0 / bframes=16 / b_pyramid=2 / b_adapt=2 / b_bias=0 / direct=3 / weightb=1 / open_gop=0 / weightp=2 / keyint=240 / keyint_min=121 / scenecut=0 / intra_refresh=0 / rc_lookahead=240 / rc=crf / mbtree=1 / crf=20.0 / qcomp=0.50 / qpmin=6 / qpmax=51 / qpstep=4 / vbv_maxrate=20000 / vbv_bufsize=25000 / crf_max=0.0 / nal_hrd=vbr / filler=0 / ip_ratio=1.40 / aq=1:0.80
Default : Yes
Forced : No

Audio
ID : 2
Format : E-AC-3
Format/Info : Enhanced Audio Coding 3
Format settings, Endianness : Big
Codec ID : A_EAC3
Duration : 19 min 47 s
Bit rate mode : Constant
Bit rate : 640 kb/s
Channel(s) : 6 channels
Channel positions : Front: L C R, Side: L R, LFE
Sampling rate : 48.0 kHz
Frame rate : 187.500 FPS (256 SPF)
Compression mode : Lossy
Stream size : 90.6 MiB (8%)
Title : English
Language : English
Service kind : Complete Main
Default : Yes
Forced : No

Text #1
ID : 3
Format : UTF-8
Codec ID : S_TEXT/UTF8
Codec ID/Info : UTF-8 Plain Text
Duration : 18 min 38 s
Bit rate : 111 b/s
Count of elements : 357
Stream size : 15.2 KiB (0%)
Title : English
Language : English
Default : No
Forced : No

Text #2
ID : 4
Format : UTF-8
Codec ID : S_TEXT/UTF8
Codec ID/Info : UTF-8 Plain Text
Duration : 18 min 38 s
Bit rate : 142 b/s
Count of elements : 314
Stream size : 19.5 KiB (0%)
Title : Arabic
Language : Arabic
Default : No
Forced : No

Text #3
ID : 5
Format : UTF-8
Codec ID : S_TEXT/UTF8
Codec ID/Info : UTF-8 Plain Text
Duration : 18 min 37 s
Bit rate : 93 b/s
Count of elements : 322
Stream size : 12.8 KiB (0%)
Title : Brazilian Portuguese
Language : Portuguese
Default : No
Forced : No

Text #4
ID : 6
Format : UTF-8
Codec ID : S_TEXT/UTF8
Codec ID/Info : UTF-8 Plain Text
Duration : 18 min 37 s
Bit rate : 102 b/s
Count of elements : 335
Stream size : 14.0 KiB (0%)
Title : Castilian
Language : Spanish
Default : No
Forced : No

Text #5
ID : 7
Format : UTF-8
Codec ID : S_TEXT/UTF8
Codec ID/Info : UTF-8 Plain Text
Duration : 18 min 38 s
Bit rate : 76 b/s
Count of elements : 317
Stream size : 10.5 KiB (0%)
Title : Chinese Simplified
Language : Chinese
Default : No
Forced : No

Text #6
ID : 8
Format : UTF-8
Codec ID : S_TEXT/UTF8
Codec ID/Info : UTF-8 Plain Text
Duration : 18 min 38 s
Bit rate : 71 b/s
Count of elements : 314
Stream size : 9.81 KiB (0%)
Title : Chinese Traditional
Language : Chinese
Default : No
Forced : No

Text #7
ID : 9
Format : UTF-8
Codec ID : S_TEXT/UTF8
Codec ID/Info : UTF-8 Plain Text
Duration : 18 min 38 s
Bit rate : 89 b/s
Count of elements : 297
Stream size : 12.2 KiB (0%)
Title : Czech
Language : Czech
Default : No
Forced : No

Text #8
ID : 10
Format : UTF-8
Codec ID : S_TEXT/UTF8
Codec ID/Info : UTF-8 Plain Text
Duration : 18 min 38 s
Bit rate : 94 b/s
Count of elements : 318
Stream size : 12.9 KiB (0%)
Title : Danish
Language : Danish
Default : No
Forced : No

Text #9
ID : 11
Format : UTF-8
Codec ID : S_TEXT/UTF8
Codec ID/Info : UTF-8 Plain Text
Duration : 18 min 38 s
Bit rate : 82 b/s
Count of elements : 292
Stream size : 11.3 KiB (0%)
Title : Dutch
Language : Dutch
Default : No
Forced : No

Text #10
ID : 12
Format : UTF-8
Codec ID : S_TEXT/UTF8
Codec ID/Info : UTF-8 Plain Text
Duration : 18 min 38 s
Bit rate : 84 b/s
Count of elements : 287
Stream size : 11.6 KiB (0%)
Title : Finnish
Language : Finnish
Default : No
Forced : No

Text #11
ID : 13
Format : UTF-8
Codec ID : S_TEXT/UTF8
Codec ID/Info : UTF-8 Plain Text
Duration : 18 min 38 s
Bit rate : 105 b/s
Count of elements : 324
Stream size : 14.4 KiB (0%)
Title : French
Language : French
Default : No
Forced : No

Text #12
ID : 14
Format : UTF-8
Codec ID : S_TEXT/UTF8
Codec ID/Info : UTF-8 Plain Text
Duration : 18 min 38 s
Bit rate : 106 b/s
Count of elements : 307
Stream size : 14.5 KiB (0%)
Title : German
Language : German
Default : No
Forced : No

Text #13
ID : 15
Format : UTF-8
Codec ID : S_TEXT/UTF8
Codec ID/Info : UTF-8 Plain Text
Duration : 18 min 38 s
Bit rate : 149 b/s
Count of elements : 327
Stream size : 20.4 KiB (0%)
Title : Greek
Language : Greek
Default : No
Forced : No

Text #14
ID : 16
Format : UTF-8
Codec ID : S_TEXT/UTF8
Codec ID/Info : UTF-8 Plain Text
Duration : 18 min 38 s
Bit rate : 117 b/s
Count of elements : 317
Stream size : 16.0 KiB (0%)
Title : Hebrew
Language : Hebrew
Default : No
Forced : No

Text #15
ID : 17
Format : UTF-8
Codec ID : S_TEXT/UTF8
Codec ID/Info : UTF-8 Plain Text
Duration : 18 min 38 s
Bit rate : 97 b/s
Count of elements : 312
Stream size : 13.3 KiB (0%)
Title : Hungarian
Language : Hungarian
Default : No
Forced : No

Text #16
ID : 18
Format : UTF-8
Codec ID : S_TEXT/UTF8
Codec ID/Info : UTF-8 Plain Text
Duration : 18 min 38 s
Bit rate : 94 b/s
Count of elements : 312
Stream size : 12.9 KiB (0%)
Title : Indonesian
Language : Indonesian
Default : No
Forced : No

Text #17
ID : 19
Format : UTF-8
Codec ID : S_TEXT/UTF8
Codec ID/Info : UTF-8 Plain Text
Duration : 18 min 38 s
Bit rate : 87 b/s
Count of elements : 324
Stream size : 12.0 KiB (0%)
Title : Italian
Language : Italian
Default : No
Forced : No

Text #18
ID : 20
Format : UTF-8
Codec ID : S_TEXT/UTF8
Codec ID/Info : UTF-8 Plain Text
Duration : 18 min 38 s
Bit rate : 91 b/s
Count of elements : 330
Stream size : 12.5 KiB (0%)
Title : Japanese
Language : Japanese
Default : No
Forced : No

Text #19
ID : 21
Format : UTF-8
Codec ID : S_TEXT/UTF8
Codec ID/Info : UTF-8 Plain Text
Duration : 18 min 38 s
Bit rate : 96 b/s
Count of elements : 330
Stream size : 13.1 KiB (0%)
Title : Korean
Language : Korean
Default : No
Forced : No

Text #20
ID : 22
Format : UTF-8
Codec ID : S_TEXT/UTF8
Codec ID/Info : UTF-8 Plain Text
Duration : 18 min 38 s
Bit rate : 93 b/s
Count of elements : 324
Stream size : 12.8 KiB (0%)
Title : Norwegian
Language : Norwegian
Default : No
Forced : No

Text #21
ID : 23
Format : UTF-8
Codec ID : S_TEXT/UTF8
Codec ID/Info : UTF-8 Plain Text
Duration : 18 min 38 s
Bit rate : 92 b/s
Count of elements : 315
Stream size : 12.7 KiB (0%)
Title : Polish
Language : Polish
Default : No
Forced : No

Text #22
ID : 24
Format : UTF-8
Codec ID : S_TEXT/UTF8
Codec ID/Info : UTF-8 Plain Text
Duration : 18 min 38 s
Bit rate : 95 b/s
Count of elements : 314
Stream size : 13.1 KiB (0%)
Title : Portuguese
Language : Portuguese
Default : No
Forced : No

Text #23
ID : 25
Format : UTF-8
Codec ID : S_TEXT/UTF8
Codec ID/Info : UTF-8 Plain Text
Duration : 18 min 38 s
Bit rate : 96 b/s
Count of elements : 314
Stream size : 13.1 KiB (0%)
Title : Romanian
Language : Romanian
Default : No
Forced : No

Text #24
ID : 26
Format : UTF-8
Codec ID : S_TEXT/UTF8
Codec ID/Info : UTF-8 Plain Text
Duration : 18 min 37 s
Bit rate : 157 b/s
Count of elements : 321
Stream size : 21.5 KiB (0%)
Title : Russian
Language : Russian
Default : No
Forced : No

Text #25
ID : 27
Format : UTF-8
Codec ID : S_TEXT/UTF8
Codec ID/Info : UTF-8 Plain Text
Duration : 18 min 38 s
Bit rate : 103 b/s
Count of elements : 328
Stream size : 14.1 KiB (0%)
Title : Spanish
Language : Spanish
Default : No
Forced : No

Text #26
ID : 28
Format : UTF-8
Codec ID : S_TEXT/UTF8
Codec ID/Info : UTF-8 Plain Text
Duration : 18 min 38 s
Bit rate : 94 b/s
Count of elements : 298
Stream size : 12.9 KiB (0%)
Title : Swedish
Language : Swedish
Default : No
Forced : No

Text #27
ID : 29
Format : UTF-8
Codec ID : S_TEXT/UTF8
Codec ID/Info : UTF-8 Plain Text
Duration : 18 min 38 s
Bit rate : 215 b/s
Count of elements : 318
Stream size : 29.4 KiB (0%)
Title : Thai
Language : Thai
Default : No
Forced : No

Text #28
ID : 30
Format : UTF-8
Codec ID : S_TEXT/UTF8
Codec ID/Info : UTF-8 Plain Text
Duration : 18 min 38 s
Bit rate : 97 b/s
Count of elements : 319
Stream size : 13.3 KiB (0%)
Title : Turkish
Language : Turkish
Default : No
Forced : No

Text #29
ID : 31
Format : UTF-8
Codec ID : S_TEXT/UTF8
Codec ID/Info : UTF-8 Plain Text
Duration : 18 min 38 s
Bit rate : 127 b/s
Count of elements : 318
Stream size : 17.4 KiB (0%)
Title : Vietnamese
Language : Vietnamese
Default : No
Forced : No





Absurd Planet S01E08


Absurd Planet S01E08


Absurd Planet S01E08


Absurd Planet S01E08


Absurd Planet S01E08