Absurd Planet S01E12

TV Series
Absurd Planet S01E12

Absurd Planet S01E12
WEB-DL | MKV | 1280x720 | English | H264 @ 2354 kbps | E-AC-3 @ 640 kbps | 19 min 45 s | 424 MiB
Subtitles: ภาษาไทย, Français, tiếng Việt, Español, Magyar, 日本語, עברית, 한국어, Русский, Ελληνικά, Nederlands, Dansk, Bahasa Indonesia, Bokmål, 中文, Suomi, Polski, Türkçe, English, Română, العربية, Deutsch, Svenska, Italiano, Português, Čeština
Genre: Documentary


A cast of quirky critters and Mother Nature herself narrate this funny science series, which peeks into the lives of Earth's most incredible animals.

55d153b1c5c848c1be5ef63ad6f18f3e.mkv (423.9 MB)



General
Unique ID : 48050615221788632922584701583075931452 (0x2426363D1FE4F50653BAF3400401753C)
Complete name : ./55d153b1c5c848c1be5ef63ad6f18f3e.mkv
Format : Matroska
Format version : Version 4 / Version 2
File size : 424 MiB
Duration : 19 min 45 s
Overall bit rate mode : Variable
Overall bit rate : 2 999 kb/s
Movie name : Absurd.Planet.S01E12.Absurd.Is.the.Word.720p.NF.WEB-DL.DDP5.1.H.264-NTb
Encoded date : UTC 2020-04-22 07:40:42
Writing application : mkvmerge v45.0.0 ('Heaven in Pennies') 64-bit
Writing library : libebml v1.3.10 + libmatroska v1.5.2

Video
ID : 1
Format : AVC
Format/Info : Advanced Video Codec
Format profile : High@L3.1
Format settings : CABAC / 4 Ref Frames
Format settings, CABAC : Yes
Format settings, RefFrames : 4 frames
Codec ID : V_MPEG4/ISO/AVC
Duration : 19 min 44 s
Bit rate mode : Variable
Bit rate : 2 355 kb/s
Maximum bit rate : 14.0 Mb/s
Width : 1 280 pixels
Height : 720 pixels
Display aspect ratio : 16:9
Frame rate mode : Constant
Frame rate : 23.976 (24000/1001) FPS
Color space : YUV
Chroma subsampling : 4:2:0
Bit depth : 8 bits
Scan type : Progressive
Bits/(Pixel*Frame) : 0.107
Stream size : 332 MiB (78%)
Writing library : x264 core 148 r2717 0d2410d
Encoding settings : cabac=1 / ref=4 / deblock=1:0:0 / analyse=0x3:0x111 / me=umh / subme=10 / psy=1 / psy_rd=1.00:0.00 / mixed_ref=1 / me_range=120 / chroma_me=1 / trellis=2 / 8x8dct=1 / cqm=0 / deadzone=21,11 / fast_pskip=1 / chroma_qp_offset=-2 / threads=8 / lookahead_threads=2 / sliced_threads=0 / nr=0 / decimate=1 / interlaced=0 / bluray_compat=0 / stitchable=1 / constrained_intra=0 / bframes=16 / b_pyramid=2 / b_adapt=2 / b_bias=0 / direct=3 / weightb=1 / open_gop=0 / weightp=2 / keyint=240 / keyint_min=121 / scenecut=0 / intra_refresh=0 / rc_lookahead=240 / rc=crf / mbtree=1 / crf=20.0 / qcomp=0.50 / qpmin=6 / qpmax=51 / qpstep=4 / vbv_maxrate=14000 / vbv_bufsize=14000 / crf_max=0.0 / nal_hrd=vbr / filler=0 / ip_ratio=1.40 / aq=1:0.80
Default : Yes
Forced : No

Audio
ID : 2
Format : E-AC-3
Format/Info : Enhanced Audio Coding 3
Format settings, Endianness : Big
Codec ID : A_EAC3
Duration : 19 min 45 s
Bit rate mode : Constant
Bit rate : 640 kb/s
Channel(s) : 6 channels
Channel positions : Front: L C R, Side: L R, LFE
Sampling rate : 48.0 kHz
Frame rate : 187.500 FPS (256 SPF)
Compression mode : Lossy
Stream size : 90.5 MiB (21%)
Language : English
Service kind : Complete Main
Default : Yes
Forced : No

Text #1
ID : 3
Format : UTF-8
Codec ID : S_TEXT/UTF8
Codec ID/Info : UTF-8 Plain Text
Duration : 18 min 37 s
Bit rate : 110 b/s
Count of elements : 374
Stream size : 15.1 KiB (0%)
Title : SDH
Language : English
Default : No
Forced : No

Text #2
ID : 4
Format : UTF-8
Codec ID : S_TEXT/UTF8
Codec ID/Info : UTF-8 Plain Text
Duration : 18 min 35 s
Bit rate : 153 b/s
Count of elements : 341
Stream size : 20.9 KiB (0%)
Language : Arabic
Default : No
Forced : No

Text #3
ID : 5
Format : UTF-8
Codec ID : S_TEXT/UTF8
Codec ID/Info : UTF-8 Plain Text
Duration : 18 min 35 s
Bit rate : 87 b/s
Count of elements : 325
Stream size : 12.0 KiB (0%)
Language : Czech
Default : No
Forced : No

Text #4
ID : 6
Format : UTF-8
Codec ID : S_TEXT/UTF8
Codec ID/Info : UTF-8 Plain Text
Duration : 18 min 35 s
Bit rate : 98 b/s
Count of elements : 340
Stream size : 13.4 KiB (0%)
Language : Danish
Default : No
Forced : No

Text #5
ID : 7
Format : UTF-8
Codec ID : S_TEXT/UTF8
Codec ID/Info : UTF-8 Plain Text
Duration : 18 min 37 s
Bit rate : 106 b/s
Count of elements : 322
Stream size : 14.5 KiB (0%)
Language : German
Default : No
Forced : No

Text #6
ID : 8
Format : UTF-8
Codec ID : S_TEXT/UTF8
Codec ID/Info : UTF-8 Plain Text
Duration : 18 min 35 s
Bit rate : 157 b/s
Count of elements : 342
Stream size : 21.4 KiB (0%)
Language : Greek
Default : No
Forced : No

Text #7
ID : 9
Format : UTF-8
Codec ID : S_TEXT/UTF8
Codec ID/Info : UTF-8 Plain Text
Duration : 18 min 37 s
Bit rate : 103 b/s
Count of elements : 342
Stream size : 14.1 KiB (0%)
Title : Latin American
Language : Spanish
Default : No
Forced : No

Text #8
ID : 10
Format : UTF-8
Codec ID : S_TEXT/UTF8
Codec ID/Info : UTF-8 Plain Text
Duration : 18 min 36 s
Bit rate : 102 b/s
Count of elements : 361
Stream size : 13.9 KiB (0%)
Title : European
Language : Spanish
Default : No
Forced : No

Text #9
ID : 11
Format : UTF-8
Codec ID : S_TEXT/UTF8
Codec ID/Info : UTF-8 Plain Text
Duration : 18 min 35 s
Bit rate : 84 b/s
Count of elements : 311
Stream size : 11.5 KiB (0%)
Language : Finnish
Default : No
Forced : No

Text #10
ID : 12
Format : UTF-8
Codec ID : S_TEXT/UTF8
Codec ID/Info : UTF-8 Plain Text
Duration : 18 min 35 s
Bit rate : 107 b/s
Count of elements : 350
Stream size : 14.6 KiB (0%)
Language : French
Default : No
Forced : No

Text #11
ID : 13
Format : UTF-8
Codec ID : S_TEXT/UTF8
Codec ID/Info : UTF-8 Plain Text
Duration : 18 min 35 s
Bit rate : 137 b/s
Count of elements : 340
Stream size : 18.8 KiB (0%)
Language : Hebrew
Default : No
Forced : No

Text #12
ID : 14
Format : UTF-8
Codec ID : S_TEXT/UTF8
Codec ID/Info : UTF-8 Plain Text
Duration : 18 min 35 s
Bit rate : 101 b/s
Count of elements : 335
Stream size : 13.8 KiB (0%)
Language : Hungarian
Default : No
Forced : No

Text #13
ID : 15
Format : UTF-8
Codec ID : S_TEXT/UTF8
Codec ID/Info : UTF-8 Plain Text
Duration : 18 min 37 s
Bit rate : 100 b/s
Count of elements : 340
Stream size : 13.7 KiB (0%)
Language : Indonesian
Default : No
Forced : No

Text #14
ID : 16
Format : UTF-8
Codec ID : S_TEXT/UTF8
Codec ID/Info : UTF-8 Plain Text
Duration : 18 min 35 s
Bit rate : 90 b/s
Count of elements : 331
Stream size : 12.4 KiB (0%)
Language : Italian
Default : No
Forced : No

Text #15
ID : 17
Format : UTF-8
Codec ID : S_TEXT/UTF8
Codec ID/Info : UTF-8 Plain Text
Duration : 18 min 35 s
Bit rate : 107 b/s
Count of elements : 347
Stream size : 14.7 KiB (0%)
Language : Japanese
Default : No
Forced : No

Text #16
ID : 18
Format : UTF-8
Codec ID : S_TEXT/UTF8
Codec ID/Info : UTF-8 Plain Text
Duration : 18 min 35 s
Bit rate : 97 b/s
Count of elements : 342
Stream size : 13.2 KiB (0%)
Language : Korean
Default : No
Forced : No

Text #17
ID : 19
Format : UTF-8
Codec ID : S_TEXT/UTF8
Codec ID/Info : UTF-8 Plain Text
Duration : 18 min 35 s
Bit rate : 94 b/s
Count of elements : 338
Stream size : 12.8 KiB (0%)
Language : Norwegian Bokmal
Default : No
Forced : No

Text #18
ID : 20
Format : UTF-8
Codec ID : S_TEXT/UTF8
Codec ID/Info : UTF-8 Plain Text
Duration : 18 min 35 s
Bit rate : 86 b/s
Count of elements : 314
Stream size : 11.8 KiB (0%)
Language : Dutch
Default : No
Forced : No

Text #19
ID : 21
Format : UTF-8
Codec ID : S_TEXT/UTF8
Codec ID/Info : UTF-8 Plain Text
Duration : 18 min 34 s
Bit rate : 94 b/s
Count of elements : 336
Stream size : 12.8 KiB (0%)
Language : Polish
Default : No
Forced : No

Text #20
ID : 22
Format : UTF-8
Codec ID : S_TEXT/UTF8
Codec ID/Info : UTF-8 Plain Text
Duration : 18 min 35 s
Bit rate : 100 b/s
Count of elements : 337
Stream size : 13.7 KiB (0%)
Title : European
Language : Portuguese
Default : No
Forced : No

Text #21
ID : 23
Format : UTF-8
Codec ID : S_TEXT/UTF8
Codec ID/Info : UTF-8 Plain Text
Duration : 18 min 34 s
Bit rate : 101 b/s
Count of elements : 342
Stream size : 13.8 KiB (0%)
Title : Brazilian
Language : Portuguese
Default : No
Forced : No

Text #22
ID : 24
Format : UTF-8
Codec ID : S_TEXT/UTF8
Codec ID/Info : UTF-8 Plain Text
Duration : 18 min 35 s
Bit rate : 111 b/s
Count of elements : 337
Stream size : 15.2 KiB (0%)
Language : Romanian
Default : No
Forced : No

Text #23
ID : 25
Format : UTF-8
Codec ID : S_TEXT/UTF8
Codec ID/Info : UTF-8 Plain Text
Duration : 18 min 35 s
Bit rate : 158 b/s
Count of elements : 352
Stream size : 21.6 KiB (0%)
Language : Russian
Default : No
Forced : No

Text #24
ID : 26
Format : UTF-8
Codec ID : S_TEXT/UTF8
Codec ID/Info : UTF-8 Plain Text
Duration : 18 min 35 s
Bit rate : 95 b/s
Count of elements : 303
Stream size : 13.0 KiB (0%)
Language : Swedish
Default : No
Forced : No

Text #25
ID : 27
Format : UTF-8
Codec ID : S_TEXT/UTF8
Codec ID/Info : UTF-8 Plain Text
Duration : 18 min 37 s
Bit rate : 229 b/s
Count of elements : 343
Stream size : 31.3 KiB (0%)
Language : Thai
Default : No
Forced : No

Text #26
ID : 28
Format : UTF-8
Codec ID : S_TEXT/UTF8
Codec ID/Info : UTF-8 Plain Text
Duration : 18 min 35 s
Bit rate : 99 b/s
Count of elements : 320
Stream size : 13.6 KiB (0%)
Language : Turkish
Default : No
Forced : No

Text #27
ID : 29
Format : UTF-8
Codec ID : S_TEXT/UTF8
Codec ID/Info : UTF-8 Plain Text
Duration : 18 min 35 s
Bit rate : 124 b/s
Count of elements : 342
Stream size : 16.9 KiB (0%)
Language : Vietnamese
Default : No
Forced : No

Text #28
ID : 30
Format : UTF-8
Codec ID : S_TEXT/UTF8
Codec ID/Info : UTF-8 Plain Text
Duration : 18 min 37 s
Bit rate : 83 b/s
Count of elements : 341
Stream size : 11.4 KiB (0%)
Title : Simplified
Language : Chinese
Default : No
Forced : No

Text #29
ID : 31
Format : UTF-8
Codec ID : S_TEXT/UTF8
Codec ID/Info : UTF-8 Plain Text
Duration : 18 min 37 s
Bit rate : 80 b/s
Count of elements : 340
Stream size : 11.0 KiB (0%)
Title : Traditional
Language : Chinese
Default : No
Forced : No





Absurd Planet S01E12


Absurd Planet S01E12


Absurd Planet S01E12


Absurd Planet S01E12


Absurd Planet S01E12