Altered Carbon S02

TV Series
Altered Carbon S02

Altered Carbon S02
WEBRip | MKV | 1920x960 | English | H264 @ 10407 kbps | E-AC-3 @ 768 kbps | 45 min 7 s | 8 x 3.52 GiB
Subtitles: ภาษาไทย, Français, tiếng Việt, Español, Magyar, 日本語, עברית, 한국어, Русский, Ελληνικά, Nederlands, Dansk, Bahasa Indonesia, Bokmål, 中文, Suomi, Polski, Türkçe, English, Română, العربية, Deutsch, Svenska, Italiano, Português, Čeština
Genre: Action, Drama, Sci-Fi

After 250 years on ice, a prisoner returns to life in a new body with one chance to win his freedom: by solving a mind-bending murder.

bdd5556b62f9ac79b3bfc97fd956f2f3.mkv (3.5 GB)



General
Unique ID : 207079498527207523714961250737194241867 (0x9BCA0F8A92FD4FCBACD1D9FFCF538F4B)
Complete name : ./bdd5556b62f9ac79b3bfc97fd956f2f3.mkv
Format : Matroska
Format version : Version 4 / Version 2
File size : 3.52 GiB
Duration : 45 min 7 s
Overall bit rate : 11.2 Mb/s
Encoded date : UTC 2020-02-27 17:30:35
Writing application : mkvmerge v41.0.0 ('Smarra') 64-bit
Writing library : libebml v1.3.9 + libmatroska v1.5.2

Video
ID : 1
Format : AVC
Format/Info : Advanced Video Codec
Format profile : High@L4.1
Format settings : CABAC / 4 Ref Frames
Format settings, CABAC : Yes
Format settings, RefFrames : 4 frames
Codec ID : V_MPEG4/ISO/AVC
Duration : 45 min 7 s
Bit rate : 10.4 Mb/s
Width : 1 920 pixels
Height : 960 pixels
Display aspect ratio : 2.000
Frame rate mode : Constant
Frame rate : 23.976 (24000/1001) FPS
Color space : YUV
Chroma subsampling : 4:2:0
Bit depth : 8 bits
Scan type : Progressive
Bits/(Pixel*Frame) : 0.235
Stream size : 3.28 GiB (93%)
Writing library : x264 core 159 r2991+50 29469ee t_mod_New [all-bit@all X86_64]
Encoding settings : cabac=1 / ref=4 / deblock=1:-3:-3 / analyse=0x3:0x133 / me=umh / subme=10 / psy=1 / fade_compensate=0.00 / psy_rd=1.00:0.15 / mixed_ref=1 / me_range=48 / chroma_me=1 / trellis=2 / 8x8dct=1 / cqm=0 / deadzone=21,11 / fast_pskip=0 / chroma_qp_offset=-3 / threads=24 / lookahead_threads=4 / sliced_threads=0 / nr=0 / decimate=0 / interlaced=0 / bluray_compat=0 / constrained_intra=0 / fgo=0 / bframes=8 / b_pyramid=2 / b_adapt=2 / b_bias=0 / direct=3 / weightb=1 / open_gop=0 / weightp=2 / keyint=250 / keyint_min=23 / scenecut=40 / intra_refresh=0 / rc=crf / mbtree=0 / crf=17.0000 / qcomp=0.60 / qpmin=0:0:0 / qpmax=69:69:69 / qpstep=4 / ip_ratio=1.30 / pb_ratio=1.20 / aq=3:0.80 / aq-sensitivity=10.00 / aq-factor=1.00:1.00:1.00 / aq2=0 / aq3=0
Default : Yes
Forced : No

Audio
ID : 2
Format : E-AC-3
Format/Info : Enhanced Audio Coding 3
Format profile : E-AC-3+Atmos / E-AC-3
Format settings, Endianness : Big
Codec ID : A_EAC3
Duration : 45 min 7 s
Bit rate mode : Constant
Bit rate : 768 kb/s
Channel(s) : 15 objects / 6 channels
Channel positions : 15 objects / Front: L C R, Side: L R, LFE
Sampling rate : 48.0 kHz
Frame rate : 187.500 FPS (256 SPF)
Compression mode : Lossy
Stream size : 248 MiB (7%)
Title : English
Language : English
Service kind : Complete Main
Default : Yes
Forced : No

Text #1
ID : 3
Format : UTF-8
Codec ID : S_TEXT/UTF8
Codec ID/Info : UTF-8 Plain Text
Duration : 24 min 41 s
Bit rate : 1 b/s
Count of elements : 8
Stream size : 262 Bytes (0%)
Title : Forced
Language : English
Default : Yes
Forced : Yes

Text #2
ID : 4
Format : UTF-8
Codec ID : S_TEXT/UTF8
Codec ID/Info : UTF-8 Plain Text
Duration : 42 min 10 s
Bit rate : 59 b/s
Count of elements : 529
Stream size : 18.3 KiB (0%)
Language : English
Default : No
Forced : No

Text #3
ID : 5
Format : UTF-8
Codec ID : S_TEXT/UTF8
Codec ID/Info : UTF-8 Plain Text
Duration : 43 min 49 s
Bit rate : 62 b/s
Count of elements : 601
Stream size : 20.0 KiB (0%)
Title : SDH
Language : English
Default : No
Forced : No

Text #4
ID : 6
Format : UTF-8
Codec ID : S_TEXT/UTF8
Codec ID/Info : UTF-8 Plain Text
Duration : 43 min 45 s
Bit rate : 86 b/s
Count of elements : 516
Stream size : 27.9 KiB (0%)
Language : Arabic
Default : No
Forced : No

Text #5
ID : 7
Format : UTF-8
Codec ID : S_TEXT/UTF8
Codec ID/Info : UTF-8 Plain Text
Duration : 43 min 45 s
Bit rate : 49 b/s
Count of elements : 510
Stream size : 15.9 KiB (0%)
Language : Czech
Default : No
Forced : No

Text #6
ID : 8
Format : UTF-8
Codec ID : S_TEXT/UTF8
Codec ID/Info : UTF-8 Plain Text
Duration : 43 min 45 s
Bit rate : 50 b/s
Count of elements : 477
Stream size : 16.3 KiB (0%)
Language : Danish
Default : No
Forced : No

Text #7
ID : 9
Format : UTF-8
Codec ID : S_TEXT/UTF8
Codec ID/Info : UTF-8 Plain Text
Duration : 43 min 46 s
Bit rate : 52 b/s
Count of elements : 496
Stream size : 16.9 KiB (0%)
Language : German
Default : No
Forced : No

Text #8
ID : 10
Format : UTF-8
Codec ID : S_TEXT/UTF8
Codec ID/Info : UTF-8 Plain Text
Duration : 43 min 45 s
Bit rate : 89 b/s
Count of elements : 517
Stream size : 28.7 KiB (0%)
Language : Greek
Default : No
Forced : No

Text #9
ID : 11
Format : UTF-8
Codec ID : S_TEXT/UTF8
Codec ID/Info : UTF-8 Plain Text
Duration : 43 min 43 s
Bit rate : 51 b/s
Count of elements : 513
Stream size : 16.4 KiB (0%)
Language : Spanish
Default : No
Forced : No

Text #10
ID : 12
Format : UTF-8
Codec ID : S_TEXT/UTF8
Codec ID/Info : UTF-8 Plain Text
Duration : 43 min 45 s
Bit rate : 51 b/s
Count of elements : 514
Stream size : 16.6 KiB (0%)
Title : European
Language : Spanish
Default : No
Forced : No

Text #11
ID : 13
Format : UTF-8
Codec ID : S_TEXT/UTF8
Codec ID/Info : UTF-8 Plain Text
Duration : 43 min 50 s
Bit rate : 46 b/s
Count of elements : 480
Stream size : 15.1 KiB (0%)
Language : Finnish
Default : No
Forced : No

Text #12
ID : 14
Format : UTF-8
Codec ID : S_TEXT/UTF8
Codec ID/Info : UTF-8 Plain Text
Duration : 43 min 45 s
Bit rate : 57 b/s
Count of elements : 498
Stream size : 18.3 KiB (0%)
Language : French
Default : No
Forced : No

Text #13
ID : 15
Format : UTF-8
Codec ID : S_TEXT/UTF8
Codec ID/Info : UTF-8 Plain Text
Duration : 43 min 45 s
Bit rate : 79 b/s
Count of elements : 536
Stream size : 25.4 KiB (0%)
Language : Hebrew
Default : No
Forced : No

Text #14
ID : 16
Format : UTF-8
Codec ID : S_TEXT/UTF8
Codec ID/Info : UTF-8 Plain Text
Duration : 43 min 45 s
Bit rate : 54 b/s
Count of elements : 511
Stream size : 17.6 KiB (0%)
Language : Hungarian
Default : No
Forced : No

Text #15
ID : 17
Format : UTF-8
Codec ID : S_TEXT/UTF8
Codec ID/Info : UTF-8 Plain Text
Duration : 43 min 45 s
Bit rate : 52 b/s
Count of elements : 489
Stream size : 16.9 KiB (0%)
Language : Indonesian
Default : No
Forced : No

Text #16
ID : 18
Format : UTF-8
Codec ID : S_TEXT/UTF8
Codec ID/Info : UTF-8 Plain Text
Duration : 43 min 49 s
Bit rate : 50 b/s
Count of elements : 493
Stream size : 16.1 KiB (0%)
Language : Italian
Default : No
Forced : No

Text #17
ID : 19
Format : UTF-8
Codec ID : S_TEXT/UTF8
Codec ID/Info : UTF-8 Plain Text
Duration : 43 min 45 s
Bit rate : 51 b/s
Count of elements : 487
Stream size : 16.4 KiB (0%)
Language : Japanese
Default : No
Forced : No

Text #18
ID : 20
Format : UTF-8
Codec ID : S_TEXT/UTF8
Codec ID/Info : UTF-8 Plain Text
Duration : 43 min 43 s
Bit rate : 60 b/s
Count of elements : 519
Stream size : 19.4 KiB (0%)
Language : Korean
Default : No
Forced : No

Text #19
ID : 21
Format : UTF-8
Codec ID : S_TEXT/UTF8
Codec ID/Info : UTF-8 Plain Text
Duration : 43 min 45 s
Bit rate : 52 b/s
Count of elements : 442
Stream size : 17.0 KiB (0%)
Language : Norwegian Bokmal
Default : No
Forced : No

Text #20
ID : 22
Format : UTF-8
Codec ID : S_TEXT/UTF8
Codec ID/Info : UTF-8 Plain Text
Duration : 43 min 45 s
Bit rate : 46 b/s
Count of elements : 466
Stream size : 14.8 KiB (0%)
Language : Dutch
Default : No
Forced : No

Text #21
ID : 23
Format : UTF-8
Codec ID : S_TEXT/UTF8
Codec ID/Info : UTF-8 Plain Text
Duration : 43 min 45 s
Bit rate : 49 b/s
Count of elements : 491
Stream size : 15.9 KiB (0%)
Language : Polish
Default : No
Forced : No

Text #22
ID : 24
Format : UTF-8
Codec ID : S_TEXT/UTF8
Codec ID/Info : UTF-8 Plain Text
Duration : 43 min 45 s
Bit rate : 55 b/s
Count of elements : 506
Stream size : 17.6 KiB (0%)
Language : Portuguese
Default : No
Forced : No

Text #23
ID : 25
Format : UTF-8
Codec ID : S_TEXT/UTF8
Codec ID/Info : UTF-8 Plain Text
Duration : 42 min 19 s
Bit rate : 54 b/s
Count of elements : 501
Stream size : 16.9 KiB (0%)
Title : Brazilian
Language : Portuguese
Default : No
Forced : No

Text #24
ID : 26
Format : UTF-8
Codec ID : S_TEXT/UTF8
Codec ID/Info : UTF-8 Plain Text
Duration : 43 min 45 s
Bit rate : 59 b/s
Count of elements : 502
Stream size : 18.9 KiB (0%)
Language : Romanian
Default : No
Forced : No

Text #25
ID : 27
Format : UTF-8
Codec ID : S_TEXT/UTF8
Codec ID/Info : UTF-8 Plain Text
Duration : 43 min 45 s
Bit rate : 86 b/s
Count of elements : 503
Stream size : 27.7 KiB (0%)
Language : Russian
Default : No
Forced : No

Text #26
ID : 28
Format : UTF-8
Codec ID : S_TEXT/UTF8
Codec ID/Info : UTF-8 Plain Text
Duration : 43 min 45 s
Bit rate : 49 b/s
Count of elements : 445
Stream size : 15.8 KiB (0%)
Language : Swedish
Default : No
Forced : No

Text #27
ID : 29
Format : UTF-8
Codec ID : S_TEXT/UTF8
Codec ID/Info : UTF-8 Plain Text
Duration : 43 min 45 s
Bit rate : 138 b/s
Count of elements : 518
Stream size : 44.4 KiB (0%)
Language : Thai
Default : No
Forced : No

Text #28
ID : 30
Format : UTF-8
Codec ID : S_TEXT/UTF8
Codec ID/Info : UTF-8 Plain Text
Duration : 43 min 45 s
Bit rate : 53 b/s
Count of elements : 486
Stream size : 17.1 KiB (0%)
Language : Turkish
Default : No
Forced : No

Text #29
ID : 31
Format : UTF-8
Codec ID : S_TEXT/UTF8
Codec ID/Info : UTF-8 Plain Text
Duration : 43 min 45 s
Bit rate : 71 b/s
Count of elements : 498
Stream size : 22.9 KiB (0%)
Language : Vietnamese
Default : No
Forced : No

Text #30
ID : 32
Format : UTF-8
Codec ID : S_TEXT/UTF8
Codec ID/Info : UTF-8 Plain Text
Duration : 43 min 45 s
Bit rate : 52 b/s
Count of elements : 518
Stream size : 16.9 KiB (0%)
Title : Simplified
Language : Chinese
Default : No
Forced : No

Text #31
ID : 33
Format : UTF-8
Codec ID : S_TEXT/UTF8
Codec ID/Info : UTF-8 Plain Text
Duration : 43 min 45 s
Bit rate : 49 b/s
Count of elements : 529
Stream size : 15.8 KiB (0%)
Title : Traditional
Language : Chinese
Default : No
Forced : No

Menu
00:00:06.235 : en:Intro start
00:01:46.484 : en:Intro end





Altered Carbon S02


Altered Carbon S02


Altered Carbon S02


Altered Carbon S02


Altered Carbon S02