Anelka: Misunderstood (2020)

Video
Anelka: Misunderstood (2020)

Anelka: Misunderstood (2020)
WEBRip | MOV | 1920x1080 | Français | H264 @ 5065 kbps | E-AC-3 @ 640 kbps | 1 h 34 min | 3.78 GiB
Genre: Documentary

Bad boy or football genius? Famed French footballer Nicolas Anelka's controversial legacy is examined in an unflinching documentary.

2b428c4fd2759c1f8b65258648f7bd5c.mkv (3.8 GB)



General
Complete name : ./2b428c4fd2759c1f8b65258648f7bd5c.mkv
Format : MPEG-4
Format profile : Base Media
Codec ID : isom (isom/iso2/avc1/mp41)
File size : 3.78 GiB
Duration : 1 h 34 min
Overall bit rate mode : Variable
Overall bit rate : 5 705 kb/s
Writing application : Lavf58.18.101
FileExtension_Invalid : mov mp4 m4v m4a m4b m4p 3ga 3gpa 3gpp 3gp 3gpp2 3g2 k3g jpm jpx mqv ismv isma ismt f4a f4b f4v

Video
ID : 2
Format : AVC
Format/Info : Advanced Video Codec
Format profile : Main@L4
Format settings : CABAC / 1 Ref Frames
Format settings, CABAC : Yes
Format settings, RefFrames : 1 frame
Codec ID : avc1
Codec ID/Info : Advanced Video Coding
Duration : 1 h 34 min
Source duration : 1 min 43 s
Bit rate mode : Variable
Bit rate : 5 066 kb/s
Maximum bit rate : 6 000 kb/s
Width : 1 920 pixels
Height : 1 080 pixels
Display aspect ratio : 16:9
Frame rate mode : Constant
Frame rate : 25.000 FPS
Original frame rate : 29.970 (30000/1001) FPS
Color space : YUV
Chroma subsampling : 4:2:0
Bit depth : 8 bits
Scan type : Progressive
Bits/(Pixel*Frame) : 0.098
Stream size : 3.35 GiB (89%)
Source stream size : 3.35 GiB (89%)
mdhd_Duration : 5686680

Audio
ID : 1
Format : E-AC-3
Format/Info : Enhanced Audio Coding 3
Format settings, Endianness : Big
Codec ID : ec-3
Duration : 1 h 34 min
Bit rate mode : Constant
Bit rate : 640 kb/s
Channel(s) : 6 channels
Channel positions : Front: L C R, Side: L R, LFE
Sampling rate : 48.0 kHz
Frame rate : 187.500 FPS (256 SPF)
Bit depth : 16 bits
Compression mode : Lossy
Stream size : 434 MiB (11%)
Title : français [VO] - Dolby
Language : French
Service kind : Complete Main
Default : Yes
Alternate group : 1





Anelka: Misunderstood (2020)


Anelka: Misunderstood (2020)


Anelka: Misunderstood (2020)


Anelka: Misunderstood (2020)


Anelka: Misunderstood (2020)