Animaniacs S01E03

TV Series
Animaniacs S01E03

Animaniacs S01E03
WEBRip | MKV | 1920x1080 | English | H264 @ 5874 kbps | E-AC-3 @ 256 kbps | 27 min 2 s | 1.16 GiB
Subtitles: Español, English
Genre: Animation, Comedy


The Warner siblings, Yakko and Wakko, and Dot, have a great time wreaking havoc and mayhem in the lives of everyone they meet. After returning to their beloved home, the Warner Bros. Water Tower, the Animaniacs waste no time in causing chaos and comic confusion as they run loose through the studio and beyond, turning the world into their personal playground. Joining Yakko, Wakko and Dot, fan-favorite characters Pinky and the Brain will also return to continue their quest for world domination.

8943e9eacb55ac00446b9234a4273eda.mkv (1.2 GB)



General
Unique ID : 92416579617377823337657097255869718837 (0x4586C92A78663D695E34B3A31703A135)
Complete name : ./8943e9eacb55ac00446b9234a4273eda.mkv
Format : Matroska
Format version : Version 4 / Version 2
File size : 1.16 GiB
Duration : 27 min 2 s
Overall bit rate : 6 133 kb/s
Writing application : mkvmerge v51.0.0 ('I Wish') 64-bit
Writing library : libebml v1.4.0 + libmatroska v1.6.2

Video
ID : 1
Format : AVC
Format/Info : Advanced Video Codec
Format profile : High@L4
Format settings : CABAC / 4 Ref Frames
Format settings, CABAC : Yes
Format settings, RefFrames : 4 frames
Codec ID : V_MPEG4/ISO/AVC
Duration : 27 min 2 s
Bit rate : 5 875 kb/s
Width : 1 920 pixels
Height : 1 080 pixels
Display aspect ratio : 16:9
Frame rate mode : Constant
Frame rate : 23.976 (24000/1001) FPS
Color space : YUV
Chroma subsampling : 4:2:0
Bit depth : 8 bits
Scan type : Progressive
Bits/(Pixel*Frame) : 0.118
Stream size : 1.11 GiB (96%)
Language : English
Default : Yes
Forced : No

Audio
ID : 2
Format : E-AC-3
Format/Info : Enhanced Audio Coding 3
Format settings, Endianness : Big
Codec ID : A_EAC3
Duration : 27 min 2 s
Bit rate mode : Constant
Bit rate : 256 kb/s
Channel(s) : 6 channels
Channel positions : Front: L C R, Side: L R, LFE
Sampling rate : 48.0 kHz
Frame rate : 187.500 FPS (256 SPF)
Compression mode : Lossy
Stream size : 49.5 MiB (4%)
Language : English
Service kind : Complete Main
Default : Yes
Forced : No

Text #1
ID : 3
Format : UTF-8
Codec ID : S_TEXT/UTF8
Codec ID/Info : UTF-8 Plain Text
Duration : 25 min 52 s
Bit rate : 94 b/s
Count of elements : 602
Stream size : 17.9 KiB (0%)
Title : English
Language : English
Default : No
Forced : No

Text #2
ID : 4
Format : UTF-8
Codec ID : S_TEXT/UTF8
Codec ID/Info : UTF-8 Plain Text
Duration : 26 min 2 s
Bit rate : 102 b/s
Count of elements : 604
Stream size : 19.6 KiB (0%)
Title : Spanish; Castilian
Language : Spanish
Default : No
Forced : No





Animaniacs S01E03


Animaniacs S01E03


Animaniacs S01E03


Animaniacs S01E03


Animaniacs S01E03