Animaniacs S01E08

TV Series
Animaniacs S01E08

Animaniacs S01E08
WEBRip | MKV | 3840x2160 | English | H265 @ 14408 kbps | E-AC-3 @ 256 kbps | 26 min 9 s | 2.73 GiB
Subtitles: Español, English
Genre: Animation, Comedy


The Warner siblings, Yakko and Wakko, and Dot, have a great time wreaking havoc and mayhem in the lives of everyone they meet. After returning to their beloved home, the Warner Bros. Water Tower, the Animaniacs waste no time in causing chaos and comic confusion as they run loose through the studio and beyond, turning the world into their personal playground. Joining Yakko, Wakko and Dot, fan-favorite characters Pinky and the Brain will also return to continue their quest for world domination.

3257d007d13b33f2b9739ceaa1269d19.mkv (2.7 GB)



General
Unique ID : 22223495412021550701488686529663816923 (0x10B816EB539162EF26F2FD683CB554DB)
Complete name : ./3257d007d13b33f2b9739ceaa1269d19.mkv
Format : Matroska
Format version : Version 4 / Version 2
File size : 2.73 GiB
Duration : 26 min 9 s
Overall bit rate : 15.0 Mb/s
Writing application : mkvmerge v49.0.0 ('Sick Of Losing Soulmates') 64-bit
Writing library : libebml v1.4.0 + libmatroska v1.6.1

Video
ID : 1
Format : HEVC
Format/Info : High Efficiency Video Coding
Format profile : Main 10@L5.1@Main
Codec ID : V_MPEGH/ISO/HEVC
Duration : 26 min 9 s
Bit rate : 14.4 Mb/s
Width : 3 840 pixels
Height : 2 160 pixels
Display aspect ratio : 16:9
Frame rate mode : Constant
Frame rate : 23.976 (24000/1001) FPS
Color space : YUV
Chroma subsampling : 4:2:0
Bit depth : 10 bits
Bits/(Pixel*Frame) : 0.072
Stream size : 2.63 GiB (96%)
Default : Yes
Forced : No

Audio
ID : 2
Format : E-AC-3
Format/Info : Enhanced Audio Coding 3
Format settings, Endianness : Big
Codec ID : A_EAC3
Duration : 26 min 9 s
Bit rate mode : Constant
Bit rate : 256 kb/s
Channel(s) : 6 channels
Channel positions : Front: L C R, Side: L R, LFE
Sampling rate : 48.0 kHz
Frame rate : 187.500 FPS (256 SPF)
Compression mode : Lossy
Stream size : 47.9 MiB (2%)
Language : English
Service kind : Complete Main
Default : Yes
Forced : No

Text #1
ID : 3
Format : UTF-8
Codec ID : S_TEXT/UTF8
Codec ID/Info : UTF-8 Plain Text
Title : English
Language : English
Default : No
Forced : No

Text #2
ID : 4
Format : UTF-8
Codec ID : S_TEXT/UTF8
Codec ID/Info : UTF-8 Plain Text
Title : Spanish
Language : Spanish
Default : No
Forced : No





Animaniacs S01E08


Animaniacs S01E08


Animaniacs S01E08


Animaniacs S01E08


Animaniacs S01E08