At Home with Amy Sedaris S02E01

TV Series
At Home with Amy Sedaris S02E01

At Home with Amy Sedaris S02E01
WEB-DL | MKV | 960x720 | English | H264 @ 4023 kbps | AAC @ 119 kbps | 24 min 33 s | 728 MiB
Subtitles: English
Genre: Comedy


Comedian Amy Sedaris invites viewers into her home to show off her diverse homemaking skills.

60618ee41c06415890ace5a7c9302c2a.mkv (728.4 MB)



General
Unique ID : 63230851487848770906827082699249307424 (0x2F91D1ABE1B04485680F40ECA5C84F20)
Complete name : ./60618ee41c06415890ace5a7c9302c2a.mkv
Format : Matroska
Format version : Version 4 / Version 2
File size : 728 MiB
Duration : 24 min 33 s
Overall bit rate : 4 146 kb/s
Encoded date : UTC 2019-02-21 17:37:31
Writing application : mkvmerge v31.0.0 ('Dolores In A Shoestand') 64-bit
Writing library : libebml v1.3.6 + libmatroska v1.4.9

Video
ID : 2
Format : AVC
Format/Info : Advanced Video Codec
Format profile : Main@L3.1
Format settings : 2 Ref Frames
Format settings, CABAC : No
Format settings, RefFrames : 2 frames
Codec ID : V_MPEG4/ISO/AVC
Duration : 24 min 33 s
Bit rate : 4 024 kb/s
Width : 960 pixels
Height : 720 pixels
Display aspect ratio : 16:9
Frame rate mode : Constant
Frame rate : 29.970 (30000/1001) FPS
Color space : YUV
Chroma subsampling : 4:2:0
Bit depth : 8 bits
Scan type : Progressive
Bits/(Pixel*Frame) : 0.194
Stream size : 707 MiB (97%)
Language : English
Default : Yes
Forced : No
Color range : Limited
Color primaries : BT.709
Transfer characteristics : BT.709
Matrix coefficients : BT.709

Audio
ID : 1
Format : AAC
Format/Info : Advanced Audio Codec
Format profile : LC
Codec ID : A_AAC-2
Duration : 24 min 33 s
Bit rate : 119 kb/s
Channel(s) : 2 channels
Channel positions : Front: L R
Sampling rate : 48.0 kHz
Frame rate : 46.875 FPS (1024 SPF)
Compression mode : Lossy
Delay relative to video : -33 ms
Stream size : 21.0 MiB (3%)
Language : English
Default : Yes
Forced : No

Text
ID : 3
Format : UTF-8
Codec ID : S_TEXT/UTF8
Codec ID/Info : UTF-8 Plain Text
Duration : 24 min 24 s
Bit rate : 102 b/s
Count of elements : 551
Stream size : 18.4 KiB (0%)
Language : English
Default : Yes
Forced : No





At Home with Amy Sedaris S02E01


At Home with Amy Sedaris S02E01


At Home with Amy Sedaris S02E01


At Home with Amy Sedaris S02E01


At Home with Amy Sedaris S02E01