At Home with Amy Sedaris S02E05

TV Series
At Home with Amy Sedaris S02E05

At Home with Amy Sedaris S02E05
WEBRip | MKV | 1920x1080 | English | H264 @ 5000 kbps | AAC @ 125 kbps | 24 min 32 s | 887 MiB
Genre: Comedy


Comedian Amy Sedaris invites viewers into her home to show off her diverse homemaking skills.

04009a9e846c4b2fba012fc4a46e3abe.mkv (886.9 MB)



General
Unique ID : 94464854478462197673436272008752010402 (0x471144E9D8E2FAF63AD156A7382014A2)
Complete name : ./04009a9e846c4b2fba012fc4a46e3abe.mkv
Format : Matroska
Format version : Version 4 / Version 2
File size : 887 MiB
Duration : 24 min 32 s
Overall bit rate : 5 051 kb/s
Encoded date : UTC 2019-07-12 22:32:47
Writing application : mkvmerge v34.0.0 ('Sight and Seen') 64-bit
Writing library : libebml v1.3.7 + libmatroska v1.5.0

Video
ID : 1
Format : AVC
Format/Info : Advanced Video Codec
Format profile : High@L4
Format settings : CABAC / 4 Ref Frames
Format settings, CABAC : Yes
Format settings, RefFrames : 4 frames
Codec ID : V_MPEG4/ISO/AVC
Duration : 24 min 32 s
Bit rate : 5 000 kb/s
Width : 1 920 pixels
Height : 1 080 pixels
Display aspect ratio : 16:9
Frame rate mode : Constant
Frame rate : 29.970 (30000/1001) FPS
Original frame rate : 29.970 (29970/1000) FPS
Color space : YUV
Chroma subsampling : 4:2:0
Bit depth : 8 bits
Scan type : Progressive
Bits/(Pixel*Frame) : 0.080
Stream size : 864 MiB (97%)
Writing library : x264 core 148
Encoding settings : cabac=1 / ref=1 / deblock=1:0:0 / analyse=0x3:0x113 / me=hex / subme=2 / psy=1 / psy_rd=1.00:0.00 / mixed_ref=0 / me_range=16 / chroma_me=1 / trellis=0 / 8x8dct=1 / cqm=0 / deadzone=21,11 / fast_pskip=1 / chroma_qp_offset=0 / threads=34 / lookahead_threads=8 / sliced_threads=0 / nr=0 / decimate=1 / interlaced=0 / bluray_compat=0 / constrained_intra=0 / bframes=2 / b_pyramid=2 / b_adapt=0 / b_bias=0 / direct=1 / weightb=1 / open_gop=0 / weightp=1 / keyint=60 / keyint_min=6 / scenecut=0 / intra_refresh=0 / rc_lookahead=10 / rc=2pass / mbtree=1 / bitrate=5000 / ratetol=1.0 / qcomp=0.60 / qpmin=0 / qpmax=69 / qpstep=4 / cplxblur=20.0 / qblur=0.5 / vbv_maxrate=5000 / vbv_bufsize=5000 / nal_hrd=none / filler=0 / ip_ratio=1.40 / aq=1:1.00
Language : English
Default : Yes
Forced : No

Audio
ID : 2
Format : AAC
Format/Info : Advanced Audio Codec
Format profile : LC
Codec ID : A_AAC-2
Duration : 24 min 32 s
Bit rate : 126 kb/s
Channel(s) : 2 channels
Channel positions : Front: L R
Sampling rate : 44.1 kHz
Frame rate : 43.066 FPS (1024 SPF)
Compression mode : Lossy
Stream size : 22.1 MiB (2%)
Language : English
Default : Yes
Forced : No





At Home with Amy Sedaris S02E05


At Home with Amy Sedaris S02E05


At Home with Amy Sedaris S02E05


At Home with Amy Sedaris S02E05


At Home with Amy Sedaris S02E05