At Home with Amy Sedaris S02E06

TV Series
At Home with Amy Sedaris S02E06

At Home with Amy Sedaris S02E06
WEB-DL | MKV | 960x720 | English | H264 @ 4033 kbps | AAC @ 121 kbps | 24 min 33 s | 731 MiB
Subtitles: English
Genre: Comedy


Comedian Amy Sedaris invites viewers into her home to show off her diverse homemaking skills.

bf06fa2380504924a4f92c70e44cb41d.mkv (730.6 MB)



General
Unique ID : 162265218451535007074400297657126450849 (0x7A1324F1D1279372601B63CD51B976A1)
Complete name : ./bf06fa2380504924a4f92c70e44cb41d.mkv
Format : Matroska
Format version : Version 4 / Version 2
File size : 731 MiB
Duration : 24 min 33 s
Overall bit rate : 4 158 kb/s
Encoded date : UTC 2019-04-03 16:42:32
Writing application : mkvmerge v31.0.0 ('Dolores In A Shoestand') 64-bit
Writing library : libebml v1.3.6 + libmatroska v1.4.9

Video
ID : 2
Format : AVC
Format/Info : Advanced Video Codec
Format profile : Main@L3.1
Format settings : 2 Ref Frames
Format settings, CABAC : No
Format settings, RefFrames : 2 frames
Codec ID : V_MPEG4/ISO/AVC
Duration : 24 min 33 s
Bit rate : 4 034 kb/s
Width : 960 pixels
Height : 720 pixels
Display aspect ratio : 16:9
Frame rate mode : Constant
Frame rate : 29.970 (30000/1001) FPS
Color space : YUV
Chroma subsampling : 4:2:0
Bit depth : 8 bits
Scan type : Progressive
Bits/(Pixel*Frame) : 0.195
Stream size : 709 MiB (97%)
Language : English
Default : Yes
Forced : No
Color range : Limited
Color primaries : BT.709
Transfer characteristics : BT.709
Matrix coefficients : BT.709

Audio
ID : 1
Format : AAC
Format/Info : Advanced Audio Codec
Format profile : LC
Codec ID : A_AAC-2
Duration : 24 min 33 s
Bit rate : 121 kb/s
Channel(s) : 2 channels
Channel positions : Front: L R
Sampling rate : 48.0 kHz
Frame rate : 46.875 FPS (1024 SPF)
Compression mode : Lossy
Delay relative to video : -33 ms
Stream size : 21.3 MiB (3%)
Language : English
Default : Yes
Forced : No

Text
ID : 3
Format : UTF-8
Codec ID : S_TEXT/UTF8
Codec ID/Info : UTF-8 Plain Text
Duration : 24 min 28 s
Bit rate : 97 b/s
Count of elements : 532
Stream size : 17.5 KiB (0%)
Language : English
Default : Yes
Forced : No





At Home with Amy Sedaris S02E06


At Home with Amy Sedaris S02E06


At Home with Amy Sedaris S02E06


At Home with Amy Sedaris S02E06


At Home with Amy Sedaris S02E06