At Home with Amy Sedaris S02E07

TV Series
At Home with Amy Sedaris S02E07

At Home with Amy Sedaris S02E07
WEB-DL | MKV | 960x720 | English | H264 @ 4030 kbps | AAC @ 118 kbps | 24 min 33 s | 729 MiB
Subtitles: English
Genre: Comedy


Comedian Amy Sedaris invites viewers into her home to show off her diverse homemaking skills.

bee6585d366b48939e1715bfe0a527ca.mkv (729.4 MB)



General
Unique ID : 173430938839174353457751831288759831972 (0x827995767EFAEB8D4DE2852AF3B1CDA4)
Complete name : ./bee6585d366b48939e1715bfe0a527ca.mkv
Format : Matroska
Format version : Version 4 / Version 2
File size : 729 MiB
Duration : 24 min 33 s
Overall bit rate : 4 152 kb/s
Encoded date : UTC 2019-04-10 16:44:59
Writing application : mkvmerge v31.0.0 ('Dolores In A Shoestand') 64-bit
Writing library : libebml v1.3.6 + libmatroska v1.4.9

Video
ID : 2
Format : AVC
Format/Info : Advanced Video Codec
Format profile : Main@L3.1
Format settings : 2 Ref Frames
Format settings, CABAC : No
Format settings, RefFrames : 2 frames
Codec ID : V_MPEG4/ISO/AVC
Duration : 24 min 33 s
Bit rate : 4 030 kb/s
Width : 960 pixels
Height : 720 pixels
Display aspect ratio : 16:9
Frame rate mode : Constant
Frame rate : 29.970 (30000/1001) FPS
Color space : YUV
Chroma subsampling : 4:2:0
Bit depth : 8 bits
Scan type : Progressive
Bits/(Pixel*Frame) : 0.195
Stream size : 708 MiB (97%)
Language : English
Default : Yes
Forced : No
Color range : Limited
Color primaries : BT.709
Transfer characteristics : BT.709
Matrix coefficients : BT.709

Audio
ID : 1
Format : AAC
Format/Info : Advanced Audio Codec
Format profile : LC
Codec ID : A_AAC-2
Duration : 24 min 33 s
Bit rate : 119 kb/s
Channel(s) : 2 channels
Channel positions : Front: L R
Sampling rate : 48.0 kHz
Frame rate : 46.875 FPS (1024 SPF)
Compression mode : Lossy
Delay relative to video : -33 ms
Stream size : 20.9 MiB (3%)
Language : English
Default : Yes
Forced : No

Text
ID : 3
Format : UTF-8
Codec ID : S_TEXT/UTF8
Codec ID/Info : UTF-8 Plain Text
Duration : 24 min 26 s
Bit rate : 109 b/s
Count of elements : 568
Stream size : 19.7 KiB (0%)
Language : English
Default : Yes
Forced : No





At Home with Amy Sedaris S02E07


At Home with Amy Sedaris S02E07


At Home with Amy Sedaris S02E07


At Home with Amy Sedaris S02E07


At Home with Amy Sedaris S02E07