At Home with Amy Sedaris S02E08

TV Series
At Home with Amy Sedaris S02E08

At Home with Amy Sedaris S02E08
WEB-DL | MKV | 1440x1080 | English | H264 @ 5177 kbps | AAC @ 120 kbps | 24 min 33 s | 931 MiB
Subtitles: English
Genre: Comedy


Comedian Amy Sedaris invites viewers into her home to show off her diverse homemaking skills.

485a8c203ae84582bf7b0a1c5add0bd5.mkv (931.2 MB)



General
Unique ID : 28434027336292544099285257870504976068 (0x156431C8B288001E6A5E3FDD4C815EC4)
Complete name : ./485a8c203ae84582bf7b0a1c5add0bd5.mkv
Format : Matroska
Format version : Version 4 / Version 2
File size : 931 MiB
Duration : 24 min 33 s
Overall bit rate : 5 301 kb/s
Encoded date : UTC 2019-04-17 16:49:01
Writing application : mkvmerge v31.0.0 ('Dolores In A Shoestand') 64-bit
Writing library : libebml v1.3.6 + libmatroska v1.4.9

Video
ID : 2
Format : AVC
Format/Info : Advanced Video Codec
Format profile : High@L4
Format settings : CABAC / 5 Ref Frames
Format settings, CABAC : Yes
Format settings, RefFrames : 5 frames
Codec ID : V_MPEG4/ISO/AVC
Duration : 24 min 33 s
Bit rate : 5 177 kb/s
Width : 1 440 pixels
Height : 1 080 pixels
Display aspect ratio : 16:9
Frame rate mode : Constant
Frame rate : 29.970 (30000/1001) FPS
Color space : YUV
Chroma subsampling : 4:2:0
Bit depth : 8 bits
Scan type : Progressive
Bits/(Pixel*Frame) : 0.111
Stream size : 909 MiB (98%)
Language : English
Default : Yes
Forced : No
Color range : Limited
Color primaries : BT.709
Transfer characteristics : BT.709
Matrix coefficients : BT.709

Audio
ID : 1
Format : AAC
Format/Info : Advanced Audio Codec
Format profile : LC
Codec ID : A_AAC-2
Duration : 24 min 33 s
Bit rate : 121 kb/s
Channel(s) : 2 channels
Channel positions : Front: L R
Sampling rate : 48.0 kHz
Frame rate : 46.875 FPS (1024 SPF)
Compression mode : Lossy
Delay relative to video : -33 ms
Stream size : 21.2 MiB (2%)
Language : English
Default : Yes
Forced : No

Text
ID : 3
Format : UTF-8
Codec ID : S_TEXT/UTF8
Codec ID/Info : UTF-8 Plain Text
Duration : 24 min 24 s
Bit rate : 107 b/s
Count of elements : 555
Stream size : 19.2 KiB (0%)
Language : English
Default : Yes
Forced : No





At Home with Amy Sedaris S02E08


At Home with Amy Sedaris S02E08


At Home with Amy Sedaris S02E08


At Home with Amy Sedaris S02E08


At Home with Amy Sedaris S02E08