At Home with Amy Sedaris S02E09

TV Series
At Home with Amy Sedaris S02E09

At Home with Amy Sedaris S02E09
WEB-DL | MKV | 960x720 | English | H264 @ 4011 kbps | AAC @ 121 kbps | 24 min 33 s | 727 MiB
Subtitles: English
Genre: Comedy


Comedian Amy Sedaris invites viewers into her home to show off her diverse homemaking skills.

0a5f5cddda5e42d8bc94f4e35e19a6cb.mkv (726.6 MB)



General
Complete name : ./0a5f5cddda5e42d8bc94f4e35e19a6cb.mkv
Format : Matroska
Format version : Version 4 / Version 2
File size : 727 MiB
Duration : 24 min 33 s
Overall bit rate : 4 136 kb/s
Encoded date : UTC 2019-04-24 16:06:57
Writing application : mkvmerge v31.0.0 ('Dolores In A Shoestand') 64-bit
Writing library : libebml v1.3.6 + libmatroska v1.4.9

Video
ID : 2
Format : AVC
Format/Info : Advanced Video Codec
Format profile : Main@L3.1
Format settings : 2 Ref Frames
Format settings, CABAC : No
Format settings, RefFrames : 2 frames
Codec ID : V_MPEG4/ISO/AVC
Duration : 24 min 33 s
Bit rate : 4 012 kb/s
Width : 960 pixels
Height : 720 pixels
Display aspect ratio : 16:9
Frame rate mode : Constant
Frame rate : 29.970 (30000/1001) FPS
Color space : YUV
Chroma subsampling : 4:2:0
Bit depth : 8 bits
Scan type : Progressive
Bits/(Pixel*Frame) : 0.194
Stream size : 705 MiB (97%)
Language : English
Default : Yes
Forced : No
Color range : Limited
Color primaries : BT.709
Transfer characteristics : BT.709
Matrix coefficients : BT.709

Audio
ID : 1
Format : AAC
Format/Info : Advanced Audio Codec
Format profile : LC
Codec ID : A_AAC-2
Duration : 24 min 33 s
Bit rate : 121 kb/s
Channel(s) : 2 channels
Channel positions : Front: L R
Sampling rate : 48.0 kHz
Frame rate : 46.875 FPS (1024 SPF)
Compression mode : Lossy
Delay relative to video : -33 ms
Stream size : 21.3 MiB (3%)
Language : English
Default : Yes
Forced : No

Text
ID : 3
Format : UTF-8
Codec ID : S_TEXT/UTF8
Codec ID/Info : UTF-8 Plain Text
Duration : 24 min 21 s
Bit rate : 108 b/s
Count of elements : 572
Stream size : 19.3 KiB (0%)
Language : English
Default : Yes
Forced : No





At Home with Amy Sedaris S02E09


At Home with Amy Sedaris S02E09


At Home with Amy Sedaris S02E09


At Home with Amy Sedaris S02E09


At Home with Amy Sedaris S02E09