At Home with Amy Sedaris S02E10

TV Series
At Home with Amy Sedaris S02E10

At Home with Amy Sedaris S02E10
WEB-DL | MKV | 1280x720 | English | H264 @ 4005 kbps | AAC @ 123 kbps | 24 min 34 s | 726 MiB
Subtitles: English
Genre: Comedy


Comedian Amy Sedaris invites viewers into her home to show off her diverse homemaking skills.

b90d1f2c689a44c6bd2caeddf838c23a.mkv (726.2 MB)



General
Unique ID : 10993611275806495652415991408133818183 (0x8454AE2486B7D38E92B5D39F77E4747)
Complete name : ./b90d1f2c689a44c6bd2caeddf838c23a.mkv
Format : Matroska
Format version : Version 4 / Version 2
File size : 726 MiB
Duration : 24 min 34 s
Overall bit rate : 4 131 kb/s
Encoded date : UTC 2019-05-01 17:20:16
Writing application : mkvmerge v31.0.0 ('Dolores In A Shoestand') 64-bit
Writing library : libebml v1.3.6 + libmatroska v1.4.9

Video
ID : 2
Format : AVC
Format/Info : Advanced Video Codec
Format profile : High@L3.1
Format settings : 2 Ref Frames
Format settings, CABAC : No
Format settings, RefFrames : 2 frames
Codec ID : V_MPEG4/ISO/AVC
Duration : 24 min 34 s
Bit rate : 4 005 kb/s
Width : 1 280 pixels
Height : 720 pixels
Display aspect ratio : 16:9
Frame rate mode : Constant
Frame rate : 23.976 (24000/1001) FPS
Color space : YUV
Chroma subsampling : 4:2:0
Bit depth : 8 bits
Scan type : Progressive
Bits/(Pixel*Frame) : 0.181
Stream size : 704 MiB (97%)
Language : English
Default : Yes
Forced : No
Color range : Limited
Color primaries : BT.709
Transfer characteristics : BT.709
Matrix coefficients : BT.709

Audio
ID : 1
Format : AAC
Format/Info : Advanced Audio Codec
Format profile : LC
Codec ID : A_AAC-2
Duration : 24 min 34 s
Bit rate : 123 kb/s
Channel(s) : 2 channels
Channel positions : Front: L R
Sampling rate : 48.0 kHz
Frame rate : 46.875 FPS (1024 SPF)
Compression mode : Lossy
Delay relative to video : -42 ms
Stream size : 21.6 MiB (3%)
Language : English
Default : Yes
Forced : No

Text
ID : 3
Format : UTF-8
Codec ID : S_TEXT/UTF8
Codec ID/Info : UTF-8 Plain Text
Duration : 24 min 21 s
Bit rate : 102 b/s
Count of elements : 534
Stream size : 18.2 KiB (0%)
Language : English
Default : Yes
Forced : No





At Home with Amy Sedaris S02E10


At Home with Amy Sedaris S02E10


At Home with Amy Sedaris S02E10


At Home with Amy Sedaris S02E10


At Home with Amy Sedaris S02E10