Blood of Zeus S01E06

TV Series
Blood of Zeus S01E06

Blood of Zeus S01E06
WEBRip | MOV | 1920x1080 | 日本語 / Italiano / Español / Français / English | H264 @ 1971 kbps | AAC @ 127 kbps | 32 min 18 s | 1.49 GiB
Subtitles: 日本語, English, Español, Français, Italiano
Genre: Animation


In a brewing war between the gods of Olympus and the titans, Heron, a commoner living on the outskirts of ancient Greece, becomes mankind's best hope of surviving an evil demon army, when he discovers the secrets of his past.

2ccbf8d5ceacaf8f6c71c7b5d4b09eb1.mkv (1.5 GB)



General
Complete name : ./2ccbf8d5ceacaf8f6c71c7b5d4b09eb1.mkv
Format : MPEG-4
Format profile : Base Media
Codec ID : isom (isom/iso2/avc1/mp41)
File size : 1.49 GiB
Duration : 32 min 18 s
Overall bit rate mode : Variable
Overall bit rate : 6 587 kb/s
Cover : Yes
FileExtension_Invalid : mov mp4 m4v m4a m4b m4p 3ga 3gpa 3gpp 3gp 3gpp2 3g2 k3g jpm jpx mqv ismv isma ismt f4a f4b f4v

Video
ID : 13
Format : AVC
Format/Info : Advanced Video Codec
Format profile : Main@L4
Format settings : CABAC / 1 Ref Frames
Format settings, CABAC : Yes
Format settings, RefFrames : 1 frame
Codec ID : avc1
Codec ID/Info : Advanced Video Coding
Duration : 32 min 16 s
Bit rate mode : Variable
Bit rate : 1 972 kb/s
Maximum bit rate : 6 000 kb/s
Width : 1 920 pixels
Height : 1 080 pixels
Display aspect ratio : 16:9
Frame rate mode : Constant
Frame rate : 24.000 FPS
Original frame rate : 29.970 (30000/1001) FPS
Color space : YUV
Chroma subsampling : 4:2:0
Bit depth : 8 bits
Scan type : Progressive
Bits/(Pixel*Frame) : 0.040
Stream size : 455 MiB (30%)
Default : Yes
Alternate group : 12

Audio #1
ID : 1
Format : AAC
Format/Info : Advanced Audio Codec
Format profile : HE-AAC / LC
Format settings : Explicit
Codec ID : mp4a-40-2
Duration : 32 min 18 s
Bit rate mode : Constant
Bit rate : 128 kb/s
Channel(s) : 2 channels
Channel positions : Front: L R
Sampling rate : 48.0 kHz / 24.0 kHz
Frame rate : 23.438 FPS (1024 SPF)
Compression mode : Lossy
Stream size : 29.6 MiB (2%)
Title : anglais [VO]
Language : English

Audio #2
ID : 2
Format : AAC
Format/Info : Advanced Audio Codec
Format profile : HE-AAC / LC
Format settings : Explicit
Codec ID : mp4a-40-2
Duration : 32 min 18 s
Bit rate mode : Constant
Bit rate : 128 kb/s
Channel(s) : 2 channels
Channel positions : Front: L R
Sampling rate : 48.0 kHz / 24.0 kHz
Frame rate : 23.438 FPS (1024 SPF)
Compression mode : Lossy
Stream size : 29.6 MiB (2%)
Title : espagnol
Language : Spanish
Default : Yes
Alternate group : 1

Audio #3
ID : 3
Format : AAC
Format/Info : Advanced Audio Codec
Format profile : HE-AAC / LC
Format settings : Explicit
Codec ID : mp4a-40-2
Duration : 32 min 18 s
Bit rate mode : Constant
Bit rate : 128 kb/s
Channel(s) : 2 channels
Channel positions : Front: L R
Sampling rate : 48.0 kHz / 24.0 kHz
Frame rate : 23.438 FPS (1024 SPF)
Compression mode : Lossy
Stream size : 29.6 MiB (2%)
Title : français
Language : French
Default : Yes
Alternate group : 2

Audio #4
ID : 4
Format : AAC
Format/Info : Advanced Audio Codec
Format profile : HE-AAC / LC
Format settings : Explicit
Codec ID : mp4a-40-2
Duration : 32 min 18 s
Bit rate mode : Constant
Bit rate : 128 kb/s
Channel(s) : 2 channels
Channel positions : Front: L R
Sampling rate : 48.0 kHz / 24.0 kHz
Frame rate : 23.438 FPS (1024 SPF)
Compression mode : Lossy
Stream size : 29.6 MiB (2%)
Title : italien
Language : Italian
Default : Yes
Alternate group : 3

Audio #5
ID : 5
Format : AAC
Format/Info : Advanced Audio Codec
Format profile : HE-AAC / LC
Format settings : Explicit
Codec ID : mp4a-40-2
Duration : 32 min 18 s
Bit rate mode : Constant
Bit rate : 128 kb/s
Channel(s) : 2 channels
Channel positions : Front: L R
Sampling rate : 48.0 kHz / 24.0 kHz
Frame rate : 23.438 FPS (1024 SPF)
Compression mode : Lossy
Stream size : 29.6 MiB (2%)
Title : japonais
Language : Japanese
Default : Yes
Alternate group : 4

Audio #6
ID : 6
Format : E-AC-3
Format/Info : Enhanced Audio Coding 3
Format settings, Endianness : Big
Codec ID : ec-3
Duration : 32 min 18 s
Bit rate mode : Constant
Bit rate : 640 kb/s
Channel(s) : 6 channels
Channel positions : Front: L C R, Side: L R, LFE
Sampling rate : 48.0 kHz
Frame rate : 187.500 FPS (256 SPF)
Bit depth : 16 bits
Compression mode : Lossy
Stream size : 148 MiB (10%)
Title : anglais [VO]
Language : English
Service kind : Complete Main
Default : Yes
Alternate group : 5

Audio #7
ID : 7
Format : E-AC-3
Format/Info : Enhanced Audio Coding 3
Format settings, Endianness : Big
Codec ID : ec-3
Duration : 32 min 18 s
Bit rate mode : Constant
Bit rate : 640 kb/s
Channel(s) : 6 channels
Channel positions : Front: L C R, Side: L R, LFE
Sampling rate : 48.0 kHz
Frame rate : 187.500 FPS (256 SPF)
Bit depth : 16 bits
Compression mode : Lossy
Stream size : 148 MiB (10%)
Title : espagnol
Language : Spanish
Service kind : Complete Main
Default : Yes
Alternate group : 6

Audio #8
ID : 8
Format : E-AC-3
Format/Info : Enhanced Audio Coding 3
Format settings, Endianness : Big
Codec ID : ec-3
Duration : 32 min 18 s
Bit rate mode : Constant
Bit rate : 640 kb/s
Channel(s) : 6 channels
Channel positions : Front: L C R, Side: L R, LFE
Sampling rate : 48.0 kHz
Frame rate : 187.500 FPS (256 SPF)
Bit depth : 16 bits
Compression mode : Lossy
Stream size : 148 MiB (10%)
Title : français
Language : French
Service kind : Complete Main
Default : Yes
Alternate group : 7

Audio #9
ID : 9
Format : E-AC-3
Format/Info : Enhanced Audio Coding 3
Format settings, Endianness : Big
Codec ID : ec-3
Duration : 32 min 18 s
Bit rate mode : Constant
Bit rate : 640 kb/s
Channel(s) : 6 channels
Channel positions : Front: L C R, Side: L R, LFE
Sampling rate : 48.0 kHz
Frame rate : 187.500 FPS (256 SPF)
Bit depth : 16 bits
Compression mode : Lossy
Stream size : 148 MiB (10%)
Title : italien
Language : Italian
Service kind : Complete Main
Default : Yes
Alternate group : 8

Audio #10
ID : 10
Format : E-AC-3
Format/Info : Enhanced Audio Coding 3
Format settings, Endianness : Big
Codec ID : ec-3
Duration : 32 min 18 s
Bit rate mode : Constant
Bit rate : 640 kb/s
Channel(s) : 6 channels
Channel positions : Front: L C R, Side: L R, LFE
Sampling rate : 48.0 kHz
Frame rate : 187.500 FPS (256 SPF)
Bit depth : 16 bits
Compression mode : Lossy
Stream size : 148 MiB (10%)
Title : japonais
Language : Japanese
Service kind : Complete Main
Default : Yes
Alternate group : 9

Audio #11
ID : 11
Format : AAC
Format/Info : Advanced Audio Codec
Format profile : HE-AAC / LC
Format settings : Explicit
Codec ID : mp4a-40-2
Duration : 32 min 18 s
Bit rate mode : Constant
Bit rate : 128 kb/s
Channel(s) : 2 channels
Channel positions : Front: L R
Sampling rate : 48.0 kHz / 24.0 kHz
Frame rate : 23.438 FPS (1024 SPF)
Compression mode : Lossy
Stream size : 29.6 MiB (2%)
Title : anglais - Description sonore
Language : English
Default : Yes
Alternate group : 10

Audio #12
ID : 12
Format : E-AC-3
Format/Info : Enhanced Audio Coding 3
Format settings, Endianness : Big
Codec ID : ec-3
Duration : 32 min 18 s
Bit rate mode : Constant
Bit rate : 640 kb/s
Channel(s) : 6 channels
Channel positions : Front: L C R, Side: L R, LFE
Sampling rate : 48.0 kHz
Frame rate : 187.500 FPS (256 SPF)
Bit depth : 16 bits
Compression mode : Lossy
Stream size : 148 MiB (10%)
Title : anglais - Description sonore - Dolby
Language : English
Service kind : Complete Main
Default : Yes
Alternate group : 11

Text #1
ID : 14
Format : Timed Text
Muxing mode : sbtl
Codec ID : tx3g
Duration : 31 min 4 s
Bit rate mode : Variable
Bit rate : 34 b/s
Stream size : 7.62 KiB (0%)
Title : espagnol
Language : Spanish
Default : Yes
Forced : No
Alternate group : 13

Text #2
ID : 15
Format : Timed Text
Muxing mode : sbtl
Codec ID : tx3g
Duration : 30 min 57 s
Bit rate mode : Variable
Bit rate : 36 b/s
Stream size : 8.07 KiB (0%)
Title : français
Language : French
Default : No
Forced : No
Alternate group : 14

Text #3
ID : 16
Format : Timed Text
Muxing mode : sbtl
Codec ID : tx3g
Duration : 31 min 4 s
Bit rate mode : Variable
Bit rate : 34 b/s
Stream size : 7.63 KiB (0%)
Title : italien
Language : Italian
Default : No
Forced : No
Alternate group : 15

Text #4
ID : 17
Format : VobSub
Codec ID : mp4s-E0
Codec ID/Info : The same subtitle format used on DVDs
Duration : 29 min 58 s
Bit rate mode : Constant
Bit rate : 4 329 b/s
Stream size : 951 KiB (0%)
Title : japonais
Language : Japanese
Default : No
Forced : No
Alternate group : 16

Text #5
ID : 18
Format : Timed Text
Muxing mode : sbtl
Codec ID : tx3g
Duration : 29 min 24 s
Bit rate mode : Variable
Bit rate : 45 b/s
Stream size : 9.78 KiB (0%)
Title : anglais
Language : English
Default : No
Forced : No
Alternate group : 17





Blood of Zeus S01E06


Blood of Zeus S01E06


Blood of Zeus S01E06


Blood of Zeus S01E06


Blood of Zeus S01E06