Carmel: Who Killed Maria Marta? S01E02

TV Series
Carmel: Who Killed Maria Marta? S01E02

Carmel: Who Killed Maria Marta? S01E02
WEB-DL | MKV | 1280x720 | Español | H264 @ 2370 kbps | E-AC-3 @ 640 kbps | 55 min 6 s | 1.16 GiB
Subtitles: ภาษาไทย, Hrvatski, Français, tiếng Việt, Español, Magyar, 日本語, עברית, 한국어, Русский, Ελληνικά, Nederlands, Dansk, Bahasa Indonesia, Bokmål, 中文, Suomi, Polski, Türkçe, English, Română, العربية, Deutsch, Svenska, Italiano, Português, Čeština
Genre: Documentary, Crime


Documentary series on the circumstances surrounding the death of María Marta García Belsunce, one of the most controversial criminal cases in Argentina.

9934b13fb7594bfab3637f331bd8c9c6.mkv (1.2 GB)



General
Unique ID : 180380672966496356463981296234909300531 (0x87B40DCF5F21D0D8240ECD0AB18E7733)
Complete name : ./9934b13fb7594bfab3637f331bd8c9c6.mkv
Format : Matroska
Format version : Version 4 / Version 2
File size : 1.16 GiB
Duration : 55 min 6 s
Overall bit rate mode : Variable
Overall bit rate : 3 004 kb/s
Writing application : mkvmerge v45.0.0 ('Heaven in Pennies') 64-bit
Writing library : libebml v1.3.10 + libmatroska v1.5.2

Video
ID : 1
Format : AVC
Format/Info : Advanced Video Codec
Format profile : Main@L3.1
Format settings : CABAC / 3 Ref Frames
Format settings, CABAC : Yes
Format settings, RefFrames : 3 frames
Codec ID : V_MPEG4/ISO/AVC
Duration : 55 min 6 s
Bit rate mode : Variable
Bit rate : 2 370 kb/s
Maximum bit rate : 3 555 kb/s
Width : 1 280 pixels
Height : 720 pixels
Display aspect ratio : 16:9
Frame rate mode : Constant
Frame rate : 25.000 FPS
Color space : YUV
Chroma subsampling : 4:2:0
Bit depth : 8 bits
Scan type : Progressive
Bits/(Pixel*Frame) : 0.103
Stream size : 929 MiB (78%)
Writing library : x264 core 148 r2722 1b0121b
Encoding settings : cabac=1 / ref=3 / deblock=1:0:0 / analyse=0x1:0x111 / me=umh / subme=10 / psy=1 / psy_rd=1.00:0.00 / mixed_ref=1 / me_range=24 / chroma_me=1 / trellis=2 / 8x8dct=0 / cqm=0 / deadzone=21,11 / fast_pskip=1 / chroma_qp_offset=-2 / threads=6 / lookahead_threads=1 / sliced_threads=0 / nr=0 / decimate=1 / interlaced=0 / bluray_compat=0 / stitchable=1 / constrained_intra=0 / bframes=2 / b_pyramid=0 / b_adapt=2 / b_bias=0 / direct=3 / weightb=1 / open_gop=0 / weightp=2 / keyint=250 / keyint_min=25 / scenecut=0 / intra_refresh=0 / rc_lookahead=50 / rc=2pass / mbtree=1 / bitrate=2370 / ratetol=1.0 / qcomp=0.50 / qpmin=6 / qpmax=51 / qpstep=4 / cplxblur=20.0 / qblur=0.5 / vbv_maxrate=3555 / vbv_bufsize=4740 / nal_hrd=vbr / filler=0 / ip_ratio=1.40 / aq=1:1.00
Default : Yes
Forced : No

Audio
ID : 2
Format : E-AC-3
Format/Info : Enhanced Audio Coding 3
Format settings, Endianness : Big
Codec ID : A_EAC3
Duration : 55 min 6 s
Bit rate mode : Constant
Bit rate : 640 kb/s
Channel(s) : 6 channels
Channel positions : Front: L C R, Side: L R, LFE
Sampling rate : 48.0 kHz
Frame rate : 187.500 FPS (256 SPF)
Compression mode : Lossy
Stream size : 252 MiB (21%)
Language : Spanish
Service kind : Complete Main
Default : Yes
Forced : No

Text #1
ID : 3
Format : UTF-8
Codec ID : S_TEXT/UTF8
Codec ID/Info : UTF-8 Plain Text
Duration : 32 min 9 s
Bit rate : 5 b/s
Count of elements : 25
Stream size : 1.35 KiB (0%)
Title : Forced
Language : Spanish
Default : Yes
Forced : Yes

Text #2
ID : 4
Format : UTF-8
Codec ID : S_TEXT/UTF8
Codec ID/Info : UTF-8 Plain Text
Duration : 52 min 52 s
Bit rate : 103 b/s
Count of elements : 865
Stream size : 40.2 KiB (0%)
Title : SDH
Language : Spanish
Default : No
Forced : No

Text #3
ID : 5
Format : UTF-8
Codec ID : S_TEXT/UTF8
Codec ID/Info : UTF-8 Plain Text
Duration : 54 min 20 s
Bit rate : 91 b/s
Count of elements : 886
Stream size : 36.3 KiB (0%)
Language : English
Default : No
Forced : No

Text #4
ID : 6
Format : UTF-8
Codec ID : S_TEXT/UTF8
Codec ID/Info : UTF-8 Plain Text
Duration : 54 min 21 s
Bit rate : 134 b/s
Count of elements : 855
Stream size : 53.4 KiB (0%)
Language : Arabic
Default : No
Forced : No

Text #5
ID : 7
Format : UTF-8
Codec ID : S_TEXT/UTF8
Codec ID/Info : UTF-8 Plain Text
Duration : 54 min 21 s
Bit rate : 84 b/s
Count of elements : 833
Stream size : 33.6 KiB (0%)
Language : Czech
Default : No
Forced : No

Text #6
ID : 8
Format : UTF-8
Codec ID : S_TEXT/UTF8
Codec ID/Info : UTF-8 Plain Text
Duration : 54 min 21 s
Bit rate : 83 b/s
Count of elements : 841
Stream size : 33.1 KiB (0%)
Language : Danish
Default : No
Forced : No

Text #7
ID : 9
Format : UTF-8
Codec ID : S_TEXT/UTF8
Codec ID/Info : UTF-8 Plain Text
Duration : 54 min 21 s
Bit rate : 89 b/s
Count of elements : 862
Stream size : 35.6 KiB (0%)
Language : German
Default : No
Forced : No

Text #8
ID : 10
Format : UTF-8
Codec ID : S_TEXT/UTF8
Codec ID/Info : UTF-8 Plain Text
Duration : 54 min 21 s
Bit rate : 157 b/s
Count of elements : 820
Stream size : 62.8 KiB (0%)
Language : Greek
Default : No
Forced : No

Text #9
ID : 11
Format : UTF-8
Codec ID : S_TEXT/UTF8
Codec ID/Info : UTF-8 Plain Text
Duration : 54 min 28 s
Bit rate : 89 b/s
Count of elements : 849
Stream size : 35.7 KiB (0%)
Language : Finnish
Default : No
Forced : No

Text #10
ID : 12
Format : UTF-8
Codec ID : S_TEXT/UTF8
Codec ID/Info : UTF-8 Plain Text
Duration : 54 min 21 s
Bit rate : 93 b/s
Count of elements : 890
Stream size : 37.3 KiB (0%)
Language : French
Default : No
Forced : No

Text #11
ID : 13
Format : UTF-8
Codec ID : S_TEXT/UTF8
Codec ID/Info : UTF-8 Plain Text
Duration : 54 min 21 s
Bit rate : 129 b/s
Count of elements : 877
Stream size : 51.6 KiB (0%)
Language : Hebrew
Default : No
Forced : No

Text #12
ID : 14
Format : UTF-8
Codec ID : S_TEXT/UTF8
Codec ID/Info : UTF-8 Plain Text
Duration : 54 min 21 s
Bit rate : 90 b/s
Count of elements : 813
Stream size : 35.8 KiB (0%)
Language : Croatian
Default : No
Forced : No

Text #13
ID : 15
Format : UTF-8
Codec ID : S_TEXT/UTF8
Codec ID/Info : UTF-8 Plain Text
Duration : 54 min 20 s
Bit rate : 90 b/s
Count of elements : 859
Stream size : 36.0 KiB (0%)
Language : Hungarian
Default : No
Forced : No

Text #14
ID : 16
Format : UTF-8
Codec ID : S_TEXT/UTF8
Codec ID/Info : UTF-8 Plain Text
Duration : 54 min 21 s
Bit rate : 92 b/s
Count of elements : 850
Stream size : 36.7 KiB (0%)
Language : Indonesian
Default : No
Forced : No

Text #15
ID : 17
Format : UTF-8
Codec ID : S_TEXT/UTF8
Codec ID/Info : UTF-8 Plain Text
Duration : 54 min 20 s
Bit rate : 87 b/s
Count of elements : 817
Stream size : 34.8 KiB (0%)
Language : Italian
Default : No
Forced : No

Text #16
ID : 18
Format : UTF-8
Codec ID : S_TEXT/UTF8
Codec ID/Info : UTF-8 Plain Text
Duration : 54 min 18 s
Bit rate : 92 b/s
Count of elements : 803
Stream size : 36.7 KiB (0%)
Language : Japanese
Default : No
Forced : No

Text #17
ID : 19
Format : UTF-8
Codec ID : S_TEXT/UTF8
Codec ID/Info : UTF-8 Plain Text
Duration : 54 min 21 s
Bit rate : 107 b/s
Count of elements : 873
Stream size : 42.9 KiB (0%)
Language : Korean
Default : No
Forced : No

Text #18
ID : 20
Format : UTF-8
Codec ID : S_TEXT/UTF8
Codec ID/Info : UTF-8 Plain Text
Duration : 51 min 56 s
Bit rate : 93 b/s
Count of elements : 881
Stream size : 35.6 KiB (0%)
Language : Malay
Default : No
Forced : No

Text #19
ID : 21
Format : UTF-8
Codec ID : S_TEXT/UTF8
Codec ID/Info : UTF-8 Plain Text
Duration : 54 min 21 s
Bit rate : 81 b/s
Count of elements : 733
Stream size : 32.5 KiB (0%)
Language : Norwegian Bokmal
Default : No
Forced : No

Text #20
ID : 22
Format : UTF-8
Codec ID : S_TEXT/UTF8
Codec ID/Info : UTF-8 Plain Text
Duration : 54 min 21 s
Bit rate : 89 b/s
Count of elements : 778
Stream size : 35.5 KiB (0%)
Language : Dutch
Default : No
Forced : No

Text #21
ID : 23
Format : UTF-8
Codec ID : S_TEXT/UTF8
Codec ID/Info : UTF-8 Plain Text
Duration : 54 min 21 s
Bit rate : 85 b/s
Count of elements : 850
Stream size : 34.2 KiB (0%)
Language : Polish
Default : No
Forced : No

Text #22
ID : 24
Format : UTF-8
Codec ID : S_TEXT/UTF8
Codec ID/Info : UTF-8 Plain Text
Duration : 54 min 21 s
Bit rate : 86 b/s
Count of elements : 858
Stream size : 34.6 KiB (0%)
Language : Portuguese
Default : No
Forced : No

Text #23
ID : 25
Format : UTF-8
Codec ID : S_TEXT/UTF8
Codec ID/Info : UTF-8 Plain Text
Duration : 54 min 21 s
Bit rate : 86 b/s
Count of elements : 861
Stream size : 34.3 KiB (0%)
Title : Brazilian
Language : Portuguese
Default : No
Forced : No

Text #24
ID : 26
Format : UTF-8
Codec ID : S_TEXT/UTF8
Codec ID/Info : UTF-8 Plain Text
Duration : 54 min 21 s
Bit rate : 93 b/s
Count of elements : 781
Stream size : 37.1 KiB (0%)
Language : Romanian
Default : No
Forced : No

Text #25
ID : 27
Format : UTF-8
Codec ID : S_TEXT/UTF8
Codec ID/Info : UTF-8 Plain Text
Duration : 54 min 21 s
Bit rate : 144 b/s
Count of elements : 855
Stream size : 57.4 KiB (0%)
Language : Russian
Default : No
Forced : No

Text #26
ID : 28
Format : UTF-8
Codec ID : S_TEXT/UTF8
Codec ID/Info : UTF-8 Plain Text
Duration : 54 min 21 s
Bit rate : 87 b/s
Count of elements : 842
Stream size : 34.9 KiB (0%)
Language : Swedish
Default : No
Forced : No

Text #27
ID : 29
Format : UTF-8
Codec ID : S_TEXT/UTF8
Codec ID/Info : UTF-8 Plain Text
Duration : 54 min 21 s
Bit rate : 221 b/s
Count of elements : 860
Stream size : 88.0 KiB (0%)
Language : Thai
Default : No
Forced : No

Text #28
ID : 30
Format : UTF-8
Codec ID : S_TEXT/UTF8
Codec ID/Info : UTF-8 Plain Text
Duration : 54 min 21 s
Bit rate : 89 b/s
Count of elements : 833
Stream size : 35.8 KiB (0%)
Language : Turkish
Default : No
Forced : No

Text #29
ID : 31
Format : UTF-8
Codec ID : S_TEXT/UTF8
Codec ID/Info : UTF-8 Plain Text
Duration : 54 min 21 s
Bit rate : 116 b/s
Count of elements : 856
Stream size : 46.3 KiB (0%)
Language : Vietnamese
Default : No
Forced : No

Text #30
ID : 32
Format : UTF-8
Codec ID : S_TEXT/UTF8
Codec ID/Info : UTF-8 Plain Text
Duration : 54 min 21 s
Bit rate : 85 b/s
Count of elements : 860
Stream size : 34.1 KiB (0%)
Title : Simplified
Language : Chinese
Default : No
Forced : No

Text #31
ID : 33
Format : UTF-8
Codec ID : S_TEXT/UTF8
Codec ID/Info : UTF-8 Plain Text
Duration : 54 min 21 s
Bit rate : 78 b/s
Count of elements : 858
Stream size : 31.1 KiB (0%)
Title : Traditional
Language : Chinese
Default : No
Forced : No





Carmel: Who Killed Maria Marta? S01E02


Carmel: Who Killed Maria Marta? S01E02


Carmel: Who Killed Maria Marta? S01E02


Carmel: Who Killed Maria Marta? S01E02


Carmel: Who Killed Maria Marta? S01E02