Hopper et le hamster des ténèbres (2022) Chickenhare and the Hamster of Darkness

Video
Hopper et le hamster des ténèbres (2022) Chickenhare and the Hamster of Darkness

Hopper et le hamster des ténèbres (2022) Chickenhare and the Hamster of Darkness
WEBRip | MKV | 1920x1080 | Français / English | H264 @ 3197 kbps | E-AC-3 @ 640 kbps | 1 h 31 min | 2.87 GiB
Subtitles: Français, English
Genre: Animation, Adventure, Comedy, Family, Romance

Follows a young hero born half chicken and half hare. Eager to fit in and feel loved in spite of his differences, he is obsessed by adventuring in spite of his clumsiness.,Set in a lush fantasy world, the film follows the adventures of Chickenhare, a young hero born half chicken and half hare, who was adopted by King Peter, a famous hare adventurer. Eager to fit in and feel loved in spite of his differences, Chickenhare is obsessed with adventuring - no matter how clumsy he is. When the Kingdom's greatest villain - his own uncle - escapes from jail and threatens to overthrow his father, Chickenhare embarks on an epic and initiatory quest along with Abe, a sarcastic turtle, and Meg, a martial arts expert skunk, to stop him.

975059a16f094a47838b706e8c209164.mkv (2.9 GB)



General
Unique ID : 261707711883897870980372402754038881008 (0xC4E312680035EBD7D569BCBF636D5AF0)
Complete name : ./975059a16f094a47838b706e8c209164.mkv
Format : Matroska
Format version : Version 4 / Version 2
File size : 2.87 GiB
Duration : 1 h 31 min
Overall bit rate mode : Variable
Overall bit rate : 4 479 kb/s
Encoded date : UTC 2022-06-10 07:40:27
Writing application : mkvmerge v68.0.0 ('The Curtain') 64-bit
Writing library : libebml v1.4.2 + libmatroska v1.6.4

Video
ID : 1
Format : AVC
Format/Info : Advanced Video Codec
Format profile : Main@L4
Format settings : CABAC / 3 Ref Frames
Format settings, CABAC : Yes
Format settings, RefFrames : 3 frames
Codec ID : V_MPEG4/ISO/AVC
Duration : 1 h 31 min
Bit rate mode : Variable
Bit rate : 3 197 kb/s
Nominal bit rate : 3 827 kb/s
Maximum bit rate : 6 330 kb/s
Width : 1 920 pixels
Height : 1 080 pixels
Display aspect ratio : 16:9
Frame rate mode : Constant
Frame rate : 24.000 FPS
Color space : YUV
Chroma subsampling : 4:2:0
Bit depth : 8 bits
Scan type : Progressive
Bits/(Pixel*Frame) : 0.064
Stream size : 2.04 GiB (71%)
Writing library : x264 core 148 r2727 7d026e8
Encoding settings : cabac=1 / ref=3 / deblock=1:0:0 / analyse=0x1:0x111 / me=umh / subme=10 / psy=1 / psy_rd=1.00:0.00 / mixed_ref=1 / me_range=24 / chroma_me=1 / trellis=2 / 8x8dct=0 / cqm=0 / deadzone=21,11 / fast_pskip=1 / chroma_qp_offset=-2 / threads=8 / lookahead_threads=1 / sliced_threads=0 / nr=0 / decimate=1 / interlaced=0 / bluray_compat=0 / stitchable=1 / constrained_intra=0 / bframes=2 / b_pyramid=0 / b_adapt=2 / b_bias=0 / direct=3 / weightb=1 / open_gop=0 / weightp=2 / keyint=250 / keyint_min=24 / scenecut=0 / intra_refresh=0 / rc_lookahead=48 / rc=2pass / mbtree=1 / bitrate=3827 / ratetol=1.0 / qcomp=0.50 / qpmin=6 / qpmax=51 / qpstep=4 / cplxblur=20.0 / qblur=0.5 / vbv_maxrate=6330 / vbv_bufsize=8440 / nal_hrd=vbr / filler=0 / ip_ratio=1.40 / aq=1:1.00
Default : Yes
Forced : No

Audio #1
ID : 2
Format : E-AC-3
Format/Info : Enhanced Audio Coding 3
Format settings, Endianness : Big
Codec ID : A_EAC3
Duration : 1 h 31 min
Bit rate mode : Constant
Bit rate : 640 kb/s
Channel(s) : 6 channels
Channel positions : Front: L C R, Side: L R, LFE
Sampling rate : 48.0 kHz
Frame rate : 187.500 FPS (256 SPF)
Compression mode : Lossy
Stream size : 419 MiB (14%)
Title : French
Language : French
Service kind : Complete Main
Default : Yes
Forced : No

Audio #2
ID : 3
Format : E-AC-3
Format/Info : Enhanced Audio Coding 3
Format settings, Endianness : Big
Codec ID : A_EAC3
Duration : 1 h 31 min
Bit rate mode : Constant
Bit rate : 640 kb/s
Channel(s) : 6 channels
Channel positions : Front: L C R, Side: L R, LFE
Sampling rate : 48.0 kHz
Frame rate : 187.500 FPS (256 SPF)
Compression mode : Lossy
Stream size : 419 MiB (14%)
Title : English
Language : English
Service kind : Complete Main
Default : No
Forced : No

Text #1
ID : 4
Format : UTF-8
Codec ID : S_TEXT/UTF8
Codec ID/Info : UTF-8 Plain Text
Duration : 1 h 30 min
Bit rate : 66 b/s
Count of elements : 1357
Stream size : 43.8 KiB (0%)
Title : French
Language : French
Default : No
Forced : No

Text #2
ID : 5
Format : UTF-8
Codec ID : S_TEXT/UTF8
Codec ID/Info : UTF-8 Plain Text
Duration : 1 h 29 min
Bit rate : 53 b/s
Count of elements : 1081
Stream size : 35.3 KiB (0%)
Title : English
Language : English
Default : No
Forced : No





Hopper et le hamster des ténèbres (2022) Chickenhare and the Hamster of Darkness


Hopper et le hamster des ténèbres (2022) Chickenhare and the Hamster of Darkness


Hopper et le hamster des ténèbres (2022) Chickenhare and the Hamster of Darkness


Hopper et le hamster des ténèbres (2022) Chickenhare and the Hamster of Darkness


Hopper et le hamster des ténèbres (2022) Chickenhare and the Hamster of Darkness