COBRA S01E02

TV Series
COBRA S01E02

COBRA S01E02
HDTV | MKV | 1280x720 | H264 @ 2253 kbps | AC-3 @ 384 kbps | 43 min 23 s | 820 MiB
Genre: Drama


As widespread power outages cause chaos and threaten lives across the country, the COBRA (Cabinet Office Briefing Room) committee comprised of the UK’s leading experts and politicians, gathers to find a way to turn the lights back on.

68c1fcfb1a0e5eb680359f91056e45c5.mkv (819.6 MB)



General
Unique ID : 72384788058438474043341961764414690985 (0x3674CD96E98438422932A1E00EC016A9)
Complete name : ./68c1fcfb1a0e5eb680359f91056e45c5.mkv
Format : Matroska
Format version : Version 4 / Version 2
File size : 820 MiB
Duration : 43 min 23 s
Overall bit rate : 2 641 kb/s
Encoded date : UTC 2020-01-17 19:09:01
Writing application : mkvmerge v23.0.0 ('The Bride Said No') 64-bit
Writing library : libebml v1.3.6 + libmatroska v1.4.9

Video
ID : 1
Format : AVC
Format/Info : Advanced Video Codec
Format profile : High@L4.1
Format settings : CABAC / 4 Ref Frames
Format settings, CABAC : Yes
Format settings, RefFrames : 4 frames
Codec ID : V_MPEG4/ISO/AVC
Duration : 43 min 23 s
Bit rate : 2 253 kb/s
Width : 1 280 pixels
Height : 720 pixels
Display aspect ratio : 16:9
Frame rate mode : Constant
Frame rate : 50.000 FPS
Color space : YUV
Chroma subsampling : 4:2:0
Bit depth : 8 bits
Scan type : Progressive
Bits/(Pixel*Frame) : 0.049
Stream size : 699 MiB (85%)
Writing library : x264 core 158
Encoding settings : cabac=1 / ref=4 / deblock=1:0:0 / analyse=0x3:0x113 / me=hex / subme=8 / psy=1 / psy_rd=1.00:0.00 / mixed_ref=1 / me_range=16 / chroma_me=1 / trellis=2 / 8x8dct=1 / cqm=0 / deadzone=21,11 / fast_pskip=1 / chroma_qp_offset=-2 / threads=18 / lookahead_threads=3 / sliced_threads=0 / nr=0 / decimate=1 / interlaced=0 / bluray_compat=0 / constrained_intra=0 / bframes=3 / b_pyramid=2 / b_adapt=1 / b_bias=0 / direct=3 / weightb=1 / open_gop=0 / weightp=2 / keyint=250 / keyint_min=25 / scenecut=40 / intra_refresh=0 / rc_lookahead=50 / rc=crf / mbtree=1 / crf=17.0 / qcomp=0.60 / qpmin=0 / qpmax=69 / qpstep=4 / ip_ratio=1.40 / aq=1:1.00
Default : Yes
Forced : No
Color range : Full
Color primaries : BT.709
Transfer characteristics : BT.709
Matrix coefficients : BT.709

Audio
ID : 2
Format : AC-3
Format/Info : Audio Coding 3
Format settings, Endianness : Big
Codec ID : A_AC3
Duration : 43 min 23 s
Bit rate mode : Constant
Bit rate : 384 kb/s
Channel(s) : 2 channels
Channel positions : Front: L R
Sampling rate : 48.0 kHz
Frame rate : 31.250 FPS (1536 SPF)
Bit depth : 16 bits
Compression mode : Lossy
Stream size : 119 MiB (15%)
Service kind : Complete Main
Default : Yes
Forced : No





COBRA S01E02


COBRA S01E02


COBRA S01E02


COBRA S01E02


COBRA S01E02