Code 404 S01E05

TV Series
Code 404 S01E05

Code 404 S01E05
HDTV | MKV | 1280x720 | H264 @ 2360 kbps | AC-3 @ 384 kbps | 22 min 57 s | 451 MiB
Genre: Comedy, Mystery, Crime


In the near future, an undercover Detective Inspector gunned down and killed during a botched sting is brought back via an experimental Artificial Intelligence project. Full of glitches, he’s got to track down the person who shot him, prove himself as a cop so as not to get shut down, and save his marriage and his friendship, all with his partner Carver to boot.

98086c42d60c0f5543dfbc5bd34784d7.mkv (451.2 MB)



General
Unique ID : 66526033792571809948271234457474743769 (0x320C72B3D05EF7F5C168E433D190BDD9)
Complete name : ./98086c42d60c0f5543dfbc5bd34784d7.mkv
Format : Matroska
Format version : Version 4 / Version 2
File size : 451 MiB
Duration : 22 min 57 s
Overall bit rate : 2 748 kb/s
Encoded date : UTC 2020-04-29 15:55:48
Writing application : mkvmerge v23.0.0 ('The Bride Said No') 64-bit
Writing library : libebml v1.3.6 + libmatroska v1.4.9

Video
ID : 1
Format : AVC
Format/Info : Advanced Video Codec
Format profile : High@L4.1
Format settings : CABAC / 4 Ref Frames
Format settings, CABAC : Yes
Format settings, RefFrames : 4 frames
Codec ID : V_MPEG4/ISO/AVC
Duration : 22 min 57 s
Bit rate : 2 361 kb/s
Width : 1 280 pixels
Height : 720 pixels
Display aspect ratio : 16:9
Frame rate mode : Constant
Frame rate : 50.000 FPS
Color space : YUV
Chroma subsampling : 4:2:0
Bit depth : 8 bits
Scan type : Progressive
Bits/(Pixel*Frame) : 0.051
Stream size : 388 MiB (86%)
Writing library : x264 core 159
Encoding settings : cabac=1 / ref=4 / deblock=1:0:0 / analyse=0x3:0x113 / me=hex / subme=8 / psy=1 / psy_rd=1.00:0.00 / mixed_ref=1 / me_range=16 / chroma_me=1 / trellis=2 / 8x8dct=1 / cqm=0 / deadzone=21,11 / fast_pskip=1 / chroma_qp_offset=-2 / threads=6 / lookahead_threads=1 / sliced_threads=0 / nr=0 / decimate=1 / interlaced=0 / bluray_compat=0 / constrained_intra=0 / bframes=3 / b_pyramid=2 / b_adapt=1 / b_bias=0 / direct=3 / weightb=1 / open_gop=0 / weightp=2 / keyint=250 / keyint_min=25 / scenecut=40 / intra_refresh=0 / rc_lookahead=50 / rc=crf / mbtree=1 / crf=17.0 / qcomp=0.60 / qpmin=0 / qpmax=69 / qpstep=4 / ip_ratio=1.40 / aq=1:1.00
Default : Yes
Forced : No
Color range : Full
Color primaries : BT.709
Transfer characteristics : BT.709
Matrix coefficients : BT.709

Audio
ID : 2
Format : AC-3
Format/Info : Audio Coding 3
Format settings, Endianness : Big
Codec ID : A_AC3
Duration : 22 min 57 s
Bit rate mode : Constant
Bit rate : 384 kb/s
Channel(s) : 2 channels
Channel positions : Front: L R
Sampling rate : 48.0 kHz
Frame rate : 31.250 FPS (1536 SPF)
Bit depth : 16 bits
Compression mode : Lossy
Stream size : 63.0 MiB (14%)
Service kind : Complete Main
Default : Yes
Forced : No





Code 404 S01E05


Code 404 S01E05


Code 404 S01E05


Code 404 S01E05


Code 404 S01E05