Creepshow S01E03

TV Series
Creepshow S01E03

Creepshow S01E03
WEBRip | MKV | 1280x720 | English | H264 @ 3864 kbps | E-AC-3 @ 224 kbps | 44 min 27 s | 1.27 GiB
Subtitles: English
Genre: Mystery, Comedy


A young boy's horror comic book comes to life in this anthology series of terrifying tales.

e297664e0b534c9ea7a16f3e7480f037.mkv (1.3 GB)



General
Unique ID : 267928582457891461542019644136858287236 (0xC9912B017A1F0B5C3CCC803256337C84)
Complete name : ./e297664e0b534c9ea7a16f3e7480f037.mkv
Format : Matroska
Format version : Version 4 / Version 2
File size : 1.27 GiB
Duration : 44 min 27 s
Overall bit rate : 4 090 kb/s
Encoded date : UTC 2019-11-16 00:25:36
Writing application : mkvmerge v37.0.0 ('Leave It') 64-bit
Writing library : libebml v1.3.9 + libmatroska v1.5.2

Video
ID : 1
Format : AVC
Format/Info : Advanced Video Codec
Format profile : High@L3.1
Format settings : CABAC / 4 Ref Frames
Format settings, CABAC : Yes
Format settings, RefFrames : 4 frames
Codec ID : V_MPEG4/ISO/AVC
Duration : 44 min 27 s
Bit rate mode : Constant
Bit rate : 3 864 kb/s
Nominal bit rate : 6 000 kb/s
Width : 1 280 pixels
Height : 720 pixels
Display aspect ratio : 16:9
Frame rate mode : Constant
Frame rate : 23.976 (24000/1001) FPS
Color space : YUV
Chroma subsampling : 4:2:0
Bit depth : 8 bits
Scan type : Progressive
Bits/(Pixel*Frame) : 0.175
Stream size : 1.20 GiB (94%)
Language : English
Default : Yes
Forced : No
Color range : Limited
Color primaries : BT.709
Transfer characteristics : BT.709
Matrix coefficients : BT.709

Audio
ID : 2
Format : E-AC-3
Format/Info : Enhanced Audio Coding 3
Format settings, Endianness : Big
Codec ID : A_EAC3
Duration : 44 min 27 s
Bit rate mode : Constant
Bit rate : 224 kb/s
Channel(s) : 2 channels
Channel positions : Front: L R
Sampling rate : 48.0 kHz
Frame rate : 187.500 FPS (256 SPF)
Compression mode : Lossy
Stream size : 71.2 MiB (5%)
Title : English
Language : English
Service kind : Complete Main
Default : Yes
Forced : No

Text
ID : 3
Format : UTF-8
Codec ID : S_TEXT/UTF8
Codec ID/Info : UTF-8 Plain Text
Duration : 44 min 15 s
Bit rate : 63 b/s
Count of elements : 691
Stream size : 20.7 KiB (0%)
Title : English (SDH)
Language : English
Default : No
Forced : No





Creepshow S01E03


Creepshow S01E03


Creepshow S01E03


Creepshow S01E03


Creepshow S01E03