Creepshow S01E04

TV Series
Creepshow S01E04

Creepshow S01E04
WEBRip | MKV | 1280x720 | English | H264 @ 3894 kbps | E-AC-3 @ 224 kbps | 42 min 41 s | 1.23 GiB
Subtitles: English
Genre: Mystery, Comedy


A young boy's horror comic book comes to life in this anthology series of terrifying tales.

e8fa777c9c0d4918af1036c43f51eb25.mkv (1.2 GB)



General
Unique ID : 305561665009605448938960626108254891654 (0xE5E1093A90A87A6F60403517E9E7AE86)
Complete name : ./e8fa777c9c0d4918af1036c43f51eb25.mkv
Format : Matroska
Format version : Version 4 / Version 2
File size : 1.23 GiB
Duration : 42 min 41 s
Overall bit rate : 4 121 kb/s
Encoded date : UTC 2019-11-16 00:27:24
Writing application : mkvmerge v37.0.0 ('Leave It') 64-bit
Writing library : libebml v1.3.9 + libmatroska v1.5.2

Video
ID : 1
Format : AVC
Format/Info : Advanced Video Codec
Format profile : High@L3.1
Format settings : CABAC / 4 Ref Frames
Format settings, CABAC : Yes
Format settings, RefFrames : 4 frames
Codec ID : V_MPEG4/ISO/AVC
Duration : 42 min 41 s
Bit rate mode : Constant
Bit rate : 3 895 kb/s
Nominal bit rate : 6 000 kb/s
Width : 1 280 pixels
Height : 720 pixels
Display aspect ratio : 16:9
Frame rate mode : Constant
Frame rate : 23.976 (24000/1001) FPS
Color space : YUV
Chroma subsampling : 4:2:0
Bit depth : 8 bits
Scan type : Progressive
Bits/(Pixel*Frame) : 0.176
Stream size : 1.16 GiB (95%)
Language : English
Default : Yes
Forced : No
Color range : Limited
Color primaries : BT.709
Transfer characteristics : BT.709
Matrix coefficients : BT.709

Audio
ID : 2
Format : E-AC-3
Format/Info : Enhanced Audio Coding 3
Format settings, Endianness : Big
Codec ID : A_EAC3
Duration : 42 min 41 s
Bit rate mode : Constant
Bit rate : 224 kb/s
Channel(s) : 2 channels
Channel positions : Front: L R
Sampling rate : 48.0 kHz
Frame rate : 187.500 FPS (256 SPF)
Compression mode : Lossy
Stream size : 68.4 MiB (5%)
Title : English
Language : English
Service kind : Complete Main
Default : Yes
Forced : No

Text
ID : 3
Format : UTF-8
Codec ID : S_TEXT/UTF8
Codec ID/Info : UTF-8 Plain Text
Duration : 42 min 31 s
Bit rate : 44 b/s
Count of elements : 643
Stream size : 13.7 KiB (0%)
Title : English (SDH)
Language : English
Default : No
Forced : No





Creepshow S01E04


Creepshow S01E04


Creepshow S01E04


Creepshow S01E04


Creepshow S01E04