Creepshow S01E05

TV Series
Creepshow S01E05

Creepshow S01E05
WEBRip | MKV | 1920x1080 | English | H264 @ 8506 kbps | E-AC-3 @ 224 kbps | 43 min 55 s | 2.68 GiB
Subtitles: English
Genre: Mystery, Comedy


A young boy's horror comic book comes to life in this anthology series of terrifying tales.

a1872b14f4314ed5b261a904ea5a84f4.mkv (2.7 GB)



General
Unique ID : 145543132827417614964809017873747495732 (0x6D7E96782CCDF93525CAED7246F94B34)
Complete name : ./a1872b14f4314ed5b261a904ea5a84f4.mkv
Format : Matroska
Format version : Version 4 / Version 2
File size : 2.68 GiB
Duration : 43 min 55 s
Overall bit rate : 8 733 kb/s
Encoded date : UTC 2019-11-16 00:28:35
Writing application : mkvmerge v37.0.0 ('Leave It') 64-bit
Writing library : libebml v1.3.9 + libmatroska v1.5.2

Video
ID : 1
Format : AVC
Format/Info : Advanced Video Codec
Format profile : High@L4
Format settings : CABAC / 4 Ref Frames
Format settings, CABAC : Yes
Format settings, RefFrames : 4 frames
Codec ID : V_MPEG4/ISO/AVC
Duration : 43 min 55 s
Bit rate mode : Constant
Bit rate : 8 507 kb/s
Nominal bit rate : 10 000 kb/s
Width : 1 920 pixels
Height : 1 080 pixels
Display aspect ratio : 16:9
Frame rate mode : Constant
Frame rate : 23.976 (24000/1001) FPS
Color space : YUV
Chroma subsampling : 4:2:0
Bit depth : 8 bits
Scan type : Progressive
Bits/(Pixel*Frame) : 0.171
Stream size : 2.61 GiB (97%)
Language : English
Default : Yes
Forced : No
Color range : Limited
Color primaries : BT.709
Transfer characteristics : BT.709
Matrix coefficients : BT.709

Audio
ID : 2
Format : E-AC-3
Format/Info : Enhanced Audio Coding 3
Format settings, Endianness : Big
Codec ID : A_EAC3
Duration : 43 min 55 s
Bit rate mode : Constant
Bit rate : 224 kb/s
Channel(s) : 2 channels
Channel positions : Front: L R
Sampling rate : 48.0 kHz
Frame rate : 187.500 FPS (256 SPF)
Compression mode : Lossy
Stream size : 70.4 MiB (3%)
Title : English
Language : English
Service kind : Complete Main
Default : Yes
Forced : No

Text
ID : 3
Format : UTF-8
Codec ID : S_TEXT/UTF8
Codec ID/Info : UTF-8 Plain Text
Duration : 43 min 43 s
Bit rate : 54 b/s
Count of elements : 642
Stream size : 17.6 KiB (0%)
Title : English (SDH)
Language : English
Default : No
Forced : No





Creepshow S01E05


Creepshow S01E05


Creepshow S01E05


Creepshow S01E05


Creepshow S01E05