Creepshow S01E05

TV Series
Creepshow S01E05

Creepshow S01E05
WEB-DL | MKV | 1920x1080 | English | H264 @ 8506 kbps | E-AC-3 @ 224 kbps | 43 min 55 s | 2.68 GiB
Subtitles: English
Genre: Mystery, Comedy


A young boy's horror comic book comes to life in this anthology series of terrifying tales.

9cb669c59906463c896a69307cc9d9ef.mkv (2.7 GB)



General
Unique ID : 139795087242417124503730514719189122985 (0x692B8DF1147E8A9D47916F1A50723FA9)
Complete name : ./9cb669c59906463c896a69307cc9d9ef.mkv
Format : Matroska
Format version : Version 4 / Version 2
File size : 2.68 GiB
Duration : 43 min 55 s
Overall bit rate : 8 733 kb/s
Encoded date : UTC 2019-10-25 04:01:26
Writing application : mkvmerge v21.0.0 ('Tardigrades Will Inherit The Earth') 64-bit
Writing library : libebml v1.3.5 + libmatroska v1.4.8

Video
ID : 1
Format : AVC
Format/Info : Advanced Video Codec
Format profile : High@L4
Format settings : CABAC / 4 Ref Frames
Format settings, CABAC : Yes
Format settings, RefFrames : 4 frames
Codec ID : V_MPEG4/ISO/AVC
Duration : 43 min 55 s
Bit rate mode : Constant
Bit rate : 8 507 kb/s
Nominal bit rate : 10 000 kb/s
Width : 1 920 pixels
Height : 1 080 pixels
Display aspect ratio : 16:9
Frame rate mode : Constant
Frame rate : 23.976 (24000/1001) FPS
Color space : YUV
Chroma subsampling : 4:2:0
Bit depth : 8 bits
Scan type : Progressive
Bits/(Pixel*Frame) : 0.171
Stream size : 2.61 GiB (97%)
Default : Yes
Forced : No
Color range : Limited
Color primaries : BT.709
Transfer characteristics : BT.709
Matrix coefficients : BT.709

Audio
ID : 2
Format : E-AC-3
Format/Info : Enhanced Audio Coding 3
Format settings, Endianness : Big
Codec ID : A_EAC3
Duration : 43 min 55 s
Bit rate mode : Constant
Bit rate : 224 kb/s
Channel(s) : 2 channels
Channel positions : Front: L R
Sampling rate : 48.0 kHz
Frame rate : 187.500 FPS (256 SPF)
Compression mode : Lossy
Stream size : 70.4 MiB (3%)
Language : English
Service kind : Complete Main
Default : Yes
Forced : No

Text #1
ID : 3
Format : UTF-8
Codec ID : S_TEXT/UTF8
Codec ID/Info : UTF-8 Plain Text
Duration : 41 min 12 s
Bit rate : 50 b/s
Count of elements : 479
Stream size : 15.2 KiB (0%)
Language : English
Default : No
Forced : No

Text #2
ID : 4
Format : UTF-8
Codec ID : S_TEXT/UTF8
Codec ID/Info : UTF-8 Plain Text
Duration : 43 min 43 s
Bit rate : 54 b/s
Count of elements : 642
Stream size : 17.6 KiB (0%)
Title : SDH
Language : English
Default : No
Forced : No





Creepshow S01E05


Creepshow S01E05


Creepshow S01E05


Creepshow S01E05


Creepshow S01E05