Creepshow S01E06

TV Series
Creepshow S01E06

Creepshow S01E06
WEBRip | MKV | 1920x1080 | English | H264 @ 8905 kbps | E-AC-3 @ 224 kbps | 44 min 10 s | 2.82 GiB
Genre: Mystery, Comedy


A young boy's horror comic book comes to life in this anthology series of terrifying tales.

05d03208a47849a88dda6788f2e6f9ac.mkv (2.8 GB)



General
Unique ID : 56823180662386882391554617707993211154 (0x2ABFBF1BC20489C9F61C83234E0FA112)
Complete name : ./05d03208a47849a88dda6788f2e6f9ac.mkv
Format : Matroska
Format version : Version 4 / Version 2
File size : 2.82 GiB
Duration : 44 min 10 s
Overall bit rate mode : Constant
Overall bit rate : 9 131 kb/s
Encoded date : UTC 2019-11-16 00:30:12
Writing application : mkvmerge v37.0.0 ('Leave It') 64-bit
Writing library : libebml v1.3.9 + libmatroska v1.5.2

Video
ID : 1
Format : AVC
Format/Info : Advanced Video Codec
Format profile : High@L4
Format settings : CABAC / 4 Ref Frames
Format settings, CABAC : Yes
Format settings, RefFrames : 4 frames
Codec ID : V_MPEG4/ISO/AVC
Duration : 44 min 10 s
Bit rate mode : Constant
Bit rate : 8 905 kb/s
Nominal bit rate : 10 000 kb/s
Width : 1 920 pixels
Height : 1 080 pixels
Display aspect ratio : 16:9
Frame rate mode : Constant
Frame rate : 23.976 (24000/1001) FPS
Color space : YUV
Chroma subsampling : 4:2:0
Bit depth : 8 bits
Scan type : Progressive
Bits/(Pixel*Frame) : 0.179
Stream size : 2.75 GiB (98%)
Language : English
Default : Yes
Forced : No
Color range : Limited
Color primaries : BT.709
Transfer characteristics : BT.709
Matrix coefficients : BT.709

Audio
ID : 2
Format : E-AC-3
Format/Info : Enhanced Audio Coding 3
Format settings, Endianness : Big
Codec ID : A_EAC3
Duration : 44 min 10 s
Bit rate mode : Constant
Bit rate : 224 kb/s
Channel(s) : 2 channels
Channel positions : Front: L R
Sampling rate : 48.0 kHz
Frame rate : 187.500 FPS (256 SPF)
Compression mode : Lossy
Stream size : 70.8 MiB (2%)
Title : English
Language : English
Service kind : Complete Main
Default : Yes
Forced : No





Creepshow S01E06


Creepshow S01E06


Creepshow S01E06


Creepshow S01E06


Creepshow S01E06