Curon S01E04

TV Series
Curon S01E04

Curon S01E04
WEBRip | MOV | 1920x1080 | English / Español / Français / Italiano / Deutsch | H264 @ 1304 kbps | AAC @ 96 kbps | 41 min 16 s | 1.65 GiB
Subtitles: English, Español, Français, Italiano, Deutsch
Genre: Drama, Mystery


When their mother mysteriously vanishes shortly after they all arrive in her hometown, teen twins discover secrets behind the village’s tranquil facade.

4721f29b63ec7533231fa2ef0c388b7f.mkv (1.7 GB)



General
Complete name : ./4721f29b63ec7533231fa2ef0c388b7f.mkv
Format : MPEG-4
Format profile : Base Media
Codec ID : isom (isom/iso2/avc1/mp41)
File size : 1.65 GiB
Duration : 41 min 16 s
Overall bit rate mode : Variable
Overall bit rate : 5 729 kb/s
Cover : Yes
FileExtension_Invalid : mov mp4 m4v m4a m4b m4p 3ga 3gpa 3gpp 3gp 3gpp2 3g2 k3g jpm jpx mqv ismv isma ismt f4a f4b f4v

Video
ID : 13
Format : AVC
Format/Info : Advanced Video Codec
Format profile : High@L4
Format settings : CABAC / 3 Ref Frames
Format settings, CABAC : Yes
Format settings, RefFrames : 3 frames
Codec ID : avc1
Codec ID/Info : Advanced Video Coding
Duration : 41 min 16 s
Bit rate : 1 304 kb/s
Width : 1 920 pixels
Height : 1 080 pixels
Display aspect ratio : 16:9
Frame rate mode : Variable
Frame rate : 24.000 FPS
Minimum frame rate : 23.930 FPS
Maximum frame rate : 24.096 FPS
Original frame rate : 23.976 (24000/1001) FPS
Color space : YUV
Chroma subsampling : 4:2:0
Bit depth : 8 bits
Scan type : Progressive
Bits/(Pixel*Frame) : 0.026
Stream size : 385 MiB (23%)
Default : Yes
Alternate group : 12

Audio #1
ID : 1
Format : AAC
Format/Info : Advanced Audio Codec
Format profile : HE-AAC / LC
Format settings : Explicit
Codec ID : mp4a-40-2
Duration : 41 min 16 s
Bit rate mode : Constant
Bit rate : 96.0 kb/s
Channel(s) : 2 channels
Channel positions : Front: L R
Sampling rate : 48.0 kHz / 24.0 kHz
Frame rate : 23.438 FPS (1024 SPF)
Compression mode : Lossy
Stream size : 28.3 MiB (2%)
Title : allemand
Language : German

Audio #2
ID : 2
Format : AAC
Format/Info : Advanced Audio Codec
Format profile : HE-AAC / LC
Format settings : Explicit
Codec ID : mp4a-40-2
Duration : 41 min 16 s
Bit rate mode : Constant
Bit rate : 96.0 kb/s
Channel(s) : 2 channels
Channel positions : Front: L R
Sampling rate : 48.0 kHz / 24.0 kHz
Frame rate : 23.438 FPS (1024 SPF)
Compression mode : Lossy
Stream size : 28.3 MiB (2%)
Title : anglais
Language : English
Default : Yes
Alternate group : 1

Audio #3
ID : 3
Format : AAC
Format/Info : Advanced Audio Codec
Format profile : HE-AAC / LC
Format settings : Explicit
Codec ID : mp4a-40-2
Duration : 41 min 16 s
Bit rate mode : Constant
Bit rate : 96.0 kb/s
Channel(s) : 2 channels
Channel positions : Front: L R
Sampling rate : 48.0 kHz / 24.0 kHz
Frame rate : 23.438 FPS (1024 SPF)
Compression mode : Lossy
Stream size : 28.3 MiB (2%)
Title : espagnol
Language : Spanish
Default : Yes
Alternate group : 2

Audio #4
ID : 4
Format : AAC
Format/Info : Advanced Audio Codec
Format profile : HE-AAC / LC
Format settings : Explicit
Codec ID : mp4a-40-2
Duration : 41 min 16 s
Bit rate mode : Constant
Bit rate : 96.0 kb/s
Channel(s) : 2 channels
Channel positions : Front: L R
Sampling rate : 48.0 kHz / 24.0 kHz
Frame rate : 23.438 FPS (1024 SPF)
Compression mode : Lossy
Stream size : 28.3 MiB (2%)
Title : français
Language : French
Default : Yes
Alternate group : 3

Audio #5
ID : 5
Format : AAC
Format/Info : Advanced Audio Codec
Format profile : HE-AAC / LC
Format settings : Explicit
Codec ID : mp4a-40-2
Duration : 41 min 16 s
Bit rate mode : Constant
Bit rate : 96.0 kb/s
Channel(s) : 2 channels
Channel positions : Front: L R
Sampling rate : 48.0 kHz / 24.0 kHz
Frame rate : 23.438 FPS (1024 SPF)
Compression mode : Lossy
Stream size : 28.3 MiB (2%)
Title : italien [VO]
Language : Italian
Default : Yes
Alternate group : 4

Audio #6
ID : 6
Format : E-AC-3
Format/Info : Enhanced Audio Coding 3
Format settings, Endianness : Big
Codec ID : ec-3
Duration : 41 min 16 s
Bit rate mode : Constant
Bit rate : 640 kb/s
Channel(s) : 6 channels
Channel positions : Front: L C R, Side: L R, LFE
Sampling rate : 48.0 kHz
Frame rate : 187.500 FPS (256 SPF)
Bit depth : 16 bits
Compression mode : Lossy
Stream size : 189 MiB (11%)
Title : allemand - Dolby
Language : German
Service kind : Complete Main
Default : Yes
Alternate group : 5

Audio #7
ID : 7
Format : E-AC-3
Format/Info : Enhanced Audio Coding 3
Format settings, Endianness : Big
Codec ID : ec-3
Duration : 41 min 16 s
Bit rate mode : Constant
Bit rate : 640 kb/s
Channel(s) : 6 channels
Channel positions : Front: L C R, Side: L R, LFE
Sampling rate : 48.0 kHz
Frame rate : 187.500 FPS (256 SPF)
Bit depth : 16 bits
Compression mode : Lossy
Stream size : 189 MiB (11%)
Title : anglais - Dolby
Language : English
Service kind : Complete Main
Default : Yes
Alternate group : 6

Audio #8
ID : 8
Format : E-AC-3
Format/Info : Enhanced Audio Coding 3
Format settings, Endianness : Big
Codec ID : ec-3
Duration : 41 min 16 s
Bit rate mode : Constant
Bit rate : 640 kb/s
Channel(s) : 6 channels
Channel positions : Front: L C R, Side: L R, LFE
Sampling rate : 48.0 kHz
Frame rate : 187.500 FPS (256 SPF)
Bit depth : 16 bits
Compression mode : Lossy
Stream size : 189 MiB (11%)
Title : espagnol - Dolby
Language : Spanish
Service kind : Complete Main
Default : Yes
Alternate group : 7

Audio #9
ID : 9
Format : E-AC-3
Format/Info : Enhanced Audio Coding 3
Format settings, Endianness : Big
Codec ID : ec-3
Duration : 41 min 16 s
Bit rate mode : Constant
Bit rate : 640 kb/s
Channel(s) : 6 channels
Channel positions : Front: L C R, Side: L R, LFE
Sampling rate : 48.0 kHz
Frame rate : 187.500 FPS (256 SPF)
Bit depth : 16 bits
Compression mode : Lossy
Stream size : 189 MiB (11%)
Title : français - Dolby
Language : French
Service kind : Complete Main
Default : Yes
Alternate group : 8

Audio #10
ID : 10
Format : E-AC-3
Format/Info : Enhanced Audio Coding 3
Format settings, Endianness : Big
Codec ID : ec-3
Duration : 41 min 16 s
Bit rate mode : Constant
Bit rate : 640 kb/s
Channel(s) : 6 channels
Channel positions : Front: L C R, Side: L R, LFE
Sampling rate : 48.0 kHz
Frame rate : 187.500 FPS (256 SPF)
Bit depth : 16 bits
Compression mode : Lossy
Stream size : 189 MiB (11%)
Title : italien [VO] - Dolby
Language : Italian
Service kind : Complete Main
Default : Yes
Alternate group : 9

Audio #11
ID : 11
Format : AAC
Format/Info : Advanced Audio Codec
Format profile : HE-AAC / LC
Format settings : Explicit
Codec ID : mp4a-40-2
Duration : 41 min 16 s
Bit rate mode : Constant
Bit rate : 96.0 kb/s
Channel(s) : 2 channels
Channel positions : Front: L R
Sampling rate : 48.0 kHz / 24.0 kHz
Frame rate : 23.438 FPS (1024 SPF)
Compression mode : Lossy
Stream size : 28.3 MiB (2%)
Title : italien - Description sonore
Language : Italian
Default : Yes
Alternate group : 10

Audio #12
ID : 12
Format : E-AC-3
Format/Info : Enhanced Audio Coding 3
Format settings, Endianness : Big
Codec ID : ec-3
Duration : 41 min 16 s
Bit rate mode : Constant
Bit rate : 640 kb/s
Channel(s) : 6 channels
Channel positions : Front: L C R, Side: L R, LFE
Sampling rate : 48.0 kHz
Frame rate : 187.500 FPS (256 SPF)
Bit depth : 16 bits
Compression mode : Lossy
Stream size : 189 MiB (11%)
Title : italien - Description sonore - Dolby
Language : Italian
Service kind : Complete Main
Default : Yes
Alternate group : 11

Text #1
ID : 14
Format : Timed Text
Muxing mode : sbtl
Codec ID : tx3g
Duration : 40 min 12 s
Bit rate mode : Variable
Bit rate : 31 b/s
Stream size : 9.25 KiB (0%)
Title : allemand
Language : German
Default : Yes
Forced : No
Alternate group : 13

Text #2
ID : 15
Format : Timed Text
Muxing mode : sbtl
Codec ID : tx3g
Duration : 40 min 12 s
Bit rate mode : Variable
Bit rate : 0 b/s
Stream size : 97.0 Bytes (0%)
Title : désactivés
Language : German
Default : No
Forced : No
Alternate group : 14

Text #3
ID : 16
Format : Timed Text
Muxing mode : sbtl
Codec ID : tx3g
Duration : 37 min 45 s
Bit rate mode : Variable
Bit rate : 41 b/s
Stream size : 11.3 KiB (0%)
Title : anglais
Language : English
Default : No
Forced : No
Alternate group : 15

Text #4
ID : 17
Format : Timed Text
Muxing mode : sbtl
Codec ID : tx3g
Duration : 20 min 54 s
Bit rate mode : Variable
Bit rate : 3 b/s
Stream size : 411 Bytes (0%)
Title : désactivés
Language : English
Default : No
Forced : No
Alternate group : 16

Text #5
ID : 18
Format : Timed Text
Muxing mode : sbtl
Codec ID : tx3g
Duration : 40 min 12 s
Bit rate mode : Variable
Bit rate : 38 b/s
Stream size : 11.1 KiB (0%)
Title : espagnol
Language : Spanish
Default : No
Forced : No
Alternate group : 17

Text #6
ID : 19
Format : Timed Text
Muxing mode : sbtl
Codec ID : tx3g
Duration : 40 min 12 s
Bit rate mode : Variable
Bit rate : 1 b/s
Stream size : 322 Bytes (0%)
Title : désactivés
Language : Spanish
Default : No
Forced : No
Alternate group : 18

Text #7
ID : 20
Format : Timed Text
Muxing mode : sbtl
Codec ID : tx3g
Duration : 40 min 12 s
Bit rate mode : Variable
Bit rate : 37 b/s
Stream size : 10.9 KiB (0%)
Title : français
Language : French
Default : No
Forced : No
Alternate group : 19

Text #8
ID : 21
Format : Timed Text
Muxing mode : sbtl
Codec ID : tx3g
Duration : 40 min 12 s
Bit rate mode : Variable
Bit rate : 1 b/s
Stream size : 306 Bytes (0%)
Title : désactivés
Language : French
Default : No
Forced : No
Alternate group : 20

Text #9
ID : 22
Format : Timed Text
Muxing mode : sbtl
Codec ID : tx3g
Duration : 20 min 54 s
Bit rate mode : Variable
Bit rate : 2 b/s
Stream size : 254 Bytes (0%)
Title : désactivés
Language : Italian
Default : No
Forced : No
Alternate group : 21

Text #10
ID : 23
Format : Timed Text
Muxing mode : sbtl
Codec ID : tx3g
Duration : 39 min 27 s
Bit rate mode : Variable
Bit rate : 51 b/s
Stream size : 14.8 KiB (0%)
Title : anglais
Language : English
Default : No
Forced : No
Alternate group : 22

Text #11
ID : 24
Format : Timed Text
Muxing mode : sbtl
Codec ID : tx3g
Duration : 37 min 44 s
Bit rate mode : Variable
Bit rate : 60 b/s
Stream size : 16.5 KiB (0%)
Title : italien
Language : Italian
Default : No
Forced : No
Alternate group : 23





Curon S01E04


Curon S01E04


Curon S01E04


Curon S01E04


Curon S01E04