Der Parfumeur (2022) The Perfumier

Video
Der Parfumeur (2022) The Perfumier

Der Parfumeur (2022) The Perfumier
WEB-DL | MKV | 1920x1080 | Deutsch | H264 @ 3687 kbps | E-AC-3 @ 640 kbps | 1 h 36 min | 2.92 GiB
Subtitles: Hrvatski, Français, Deutsch, Suomi, Español, Magyar, Polski, Italiano, Ελληνικά, Türkçe, Nederlands, Svenska, Dansk, English, Bahasa Indonesia, Русский, Українська, Português, Čeština
Genre: Crime, Drama, Thriller

A police detective tries to get back his girlfriend as well as his sense of smell, as he gets help from a perfume maker who uses deadly methods to find the perfect perfume.

der.parfumeur.2022.german.dl.1080p.web.x264-wayne.mkv (2.9 GB)



General
Unique ID : 55310710100114249232795552887222988415 (0x299C748D686B70796712933DD9366E7F)
Complete name : ./der.parfumeur.2022.german.dl.1080p.web.x264-wayne.mkv
Format : Matroska
Format version : Version 4 / Version 2
File size : 2.92 GiB
Duration : 1 h 36 min
Overall bit rate mode : Variable
Overall bit rate : 4 331 kb/s
Encoded date : UTC 2022-09-21 07:12:43
Writing application : mkvmerge v68.0.0 ('The Curtain') 64-bit
Writing library : libebml v1.4.2 + libmatroska v1.6.4

Video
ID : 1
Format : AVC
Format/Info : Advanced Video Codec
Format profile : High@L4
Format settings : CABAC / 4 Ref Frames
Format settings, CABAC : Yes
Format settings, RefFrames : 4 frames
Codec ID : V_MPEG4/ISO/AVC
Duration : 1 h 36 min
Bit rate mode : Variable
Bit rate : 3 688 kb/s
Maximum bit rate : 20.0 Mb/s
Width : 1 920 pixels
Height : 1 080 pixels
Display aspect ratio : 16:9
Frame rate mode : Constant
Frame rate : 24.000 FPS
Color space : YUV
Chroma subsampling : 4:2:0
Bit depth : 8 bits
Scan type : Progressive
Bits/(Pixel*Frame) : 0.074
Stream size : 2.48 GiB (85%)
Writing library : x264 core 148 r2727 7d026e8
Encoding settings : cabac=1 / ref=4 / deblock=1:0:0 / analyse=0x3:0x111 / me=umh / subme=10 / psy=1 / psy_rd=1.00:0.00 / mixed_ref=1 / me_range=120 / chroma_me=1 / trellis=2 / 8x8dct=1 / cqm=0 / deadzone=21,11 / fast_pskip=1 / chroma_qp_offset=-2 / threads=8 / lookahead_threads=2 / sliced_threads=0 / nr=0 / decimate=1 / interlaced=0 / bluray_compat=0 / stitchable=1 / constrained_intra=0 / bframes=16 / b_pyramid=2 / b_adapt=2 / b_bias=0 / direct=3 / weightb=1 / open_gop=0 / weightp=2 / keyint=240 / keyint_min=121 / scenecut=0 / intra_refresh=0 / rc_lookahead=240 / rc=crf / mbtree=1 / crf=16.0 / qcomp=0.50 / qpmin=6 / qpmax=51 / qpstep=4 / vbv_maxrate=20000 / vbv_bufsize=25000 / crf_max=0.0 / nal_hrd=vbr / filler=0 / ip_ratio=1.40 / aq=1:0.80
Default : Yes
Forced : No

Audio
ID : 2
Format : E-AC-3
Format/Info : Enhanced Audio Coding 3
Format settings, Endianness : Big
Codec ID : A_EAC3
Duration : 1 h 36 min
Bit rate mode : Constant
Bit rate : 640 kb/s
Channel(s) : 6 channels
Channel positions : Front: L C R, Side: L R, LFE
Sampling rate : 48.0 kHz
Frame rate : 187.500 FPS (256 SPF)
Compression mode : Lossy
Stream size : 442 MiB (15%)
Language : German
Service kind : Complete Main
Default : Yes
Forced : No

Text #1
ID : 3
Format : UTF-8
Codec ID : S_TEXT/UTF8
Codec ID/Info : UTF-8 Plain Text
Duration : 3 min 26 s
Bit rate : 1 b/s
Count of elements : 2
Stream size : 48.0 Bytes (0%)
Title : German Forced
Language : German
Default : Yes
Forced : Yes

Text #2
ID : 4
Format : UTF-8
Codec ID : S_TEXT/UTF8
Codec ID/Info : UTF-8 Plain Text
Duration : 1 h 31 min
Bit rate : 49 b/s
Count of elements : 1181
Stream size : 32.8 KiB (0%)
Title : German
Language : German
Default : No
Forced : No

Text #3
ID : 5
Format : UTF-8
Codec ID : S_TEXT/UTF8
Codec ID/Info : UTF-8 Plain Text
Duration : 1 h 31 min
Bit rate : 45 b/s
Count of elements : 1202
Stream size : 30.5 KiB (0%)
Title : English
Language : English
Default : No
Forced : No

Text #4
ID : 6
Format : UTF-8
Codec ID : S_TEXT/UTF8
Codec ID/Info : UTF-8 Plain Text
Duration : 1 h 31 min
Bit rate : 33 b/s
Count of elements : 829
Stream size : 22.3 KiB (0%)
Title : English
Language : English
Default : No
Forced : No

Text #5
ID : 7
Format : UTF-8
Codec ID : S_TEXT/UTF8
Codec ID/Info : UTF-8 Plain Text
Duration : 1 h 34 min
Bit rate : 27 b/s
Count of elements : 759
Stream size : 19.2 KiB (0%)
Title : Dutch
Language : Dutch
Default : No
Forced : No

Text #6
ID : 8
Format : UTF-8
Codec ID : S_TEXT/UTF8
Codec ID/Info : UTF-8 Plain Text
Duration : 1 h 31 min
Bit rate : 43 b/s
Count of elements : 1122
Stream size : 29.2 KiB (0%)
Title : Spanish
Language : Spanish
Default : No
Forced : No

Text #7
ID : 9
Format : UTF-8
Codec ID : S_TEXT/UTF8
Codec ID/Info : UTF-8 Plain Text
Duration : 1 h 31 min
Bit rate : 46 b/s
Count of elements : 1043
Stream size : 30.9 KiB (0%)
Title : Brazilian Portuguese
Language : Portuguese
Default : No
Forced : No

Text #8
ID : 10
Format : UTF-8
Codec ID : S_TEXT/UTF8
Codec ID/Info : UTF-8 Plain Text
Duration : 1 h 34 min
Bit rate : 29 b/s
Count of elements : 769
Stream size : 20.3 KiB (0%)
Title : Czech
Language : Czech
Default : No
Forced : No

Text #9
ID : 11
Format : UTF-8
Codec ID : S_TEXT/UTF8
Codec ID/Info : UTF-8 Plain Text
Duration : 1 h 34 min
Bit rate : 28 b/s
Count of elements : 754
Stream size : 20.0 KiB (0%)
Title : Danish
Language : Danish
Default : No
Forced : No

Text #10
ID : 12
Format : UTF-8
Codec ID : S_TEXT/UTF8
Codec ID/Info : UTF-8 Plain Text
Duration : 1 h 34 min
Bit rate : 49 b/s
Count of elements : 769
Stream size : 34.2 KiB (0%)
Title : Greek
Language : Greek
Default : No
Forced : No

Text #11
ID : 13
Format : UTF-8
Codec ID : S_TEXT/UTF8
Codec ID/Info : UTF-8 Plain Text
Duration : 1 h 34 min
Bit rate : 28 b/s
Count of elements : 764
Stream size : 19.7 KiB (0%)
Title : European Spanish
Language : Spanish
Default : No
Forced : No

Text #12
ID : 14
Format : UTF-8
Codec ID : S_TEXT/UTF8
Codec ID/Info : UTF-8 Plain Text
Duration : 1 h 34 min
Bit rate : 29 b/s
Count of elements : 768
Stream size : 20.5 KiB (0%)
Title : Spanish
Language : Spanish
Default : No
Forced : No

Text #13
ID : 15
Format : UTF-8
Codec ID : S_TEXT/UTF8
Codec ID/Info : UTF-8 Plain Text
Duration : 1 h 34 min
Bit rate : 32 b/s
Count of elements : 772
Stream size : 22.7 KiB (0%)
Title : Filipino
Language : fil
Default : No
Forced : No

Text #14
ID : 16
Format : UTF-8
Codec ID : S_TEXT/UTF8
Codec ID/Info : UTF-8 Plain Text
Duration : 1 h 34 min
Bit rate : 28 b/s
Count of elements : 725
Stream size : 19.5 KiB (0%)
Title : Finnish
Language : Finnish
Default : No
Forced : No

Text #15
ID : 17
Format : UTF-8
Codec ID : S_TEXT/UTF8
Codec ID/Info : UTF-8 Plain Text
Duration : 1 h 34 min
Bit rate : 29 b/s
Count of elements : 745
Stream size : 20.6 KiB (0%)
Title : French
Language : French
Default : No
Forced : No

Text #16
ID : 18
Format : UTF-8
Codec ID : S_TEXT/UTF8
Codec ID/Info : UTF-8 Plain Text
Duration : 1 h 34 min
Bit rate : 27 b/s
Count of elements : 773
Stream size : 18.9 KiB (0%)
Title : Croatian
Language : Croatian
Default : No
Forced : No

Text #17
ID : 19
Format : UTF-8
Codec ID : S_TEXT/UTF8
Codec ID/Info : UTF-8 Plain Text
Duration : 1 h 34 min
Bit rate : 29 b/s
Count of elements : 772
Stream size : 20.5 KiB (0%)
Title : Hungarian
Language : Hungarian
Default : No
Forced : No

Text #18
ID : 20
Format : UTF-8
Codec ID : S_TEXT/UTF8
Codec ID/Info : UTF-8 Plain Text
Duration : 1 h 34 min
Bit rate : 30 b/s
Count of elements : 775
Stream size : 21.0 KiB (0%)
Title : Indonesian
Language : Indonesian
Default : No
Forced : No

Text #19
ID : 21
Format : UTF-8
Codec ID : S_TEXT/UTF8
Codec ID/Info : UTF-8 Plain Text
Duration : 1 h 34 min
Bit rate : 28 b/s
Count of elements : 765
Stream size : 20.1 KiB (0%)
Title : Italian
Language : Italian
Default : No
Forced : No

Text #20
ID : 22
Format : UTF-8
Codec ID : S_TEXT/UTF8
Codec ID/Info : UTF-8 Plain Text
Duration : 1 h 34 min
Bit rate : 29 b/s
Count of elements : 771
Stream size : 20.3 KiB (0%)
Title : Malay
Language : Malayalam
Default : No
Forced : No

Text #21
ID : 23
Format : UTF-8
Codec ID : S_TEXT/UTF8
Codec ID/Info : UTF-8 Plain Text
Duration : 1 h 34 min
Bit rate : 28 b/s
Count of elements : 715
Stream size : 19.5 KiB (0%)
Title : Norwegian Bokmal
Language : Norwegian
Default : No
Forced : No

Text #22
ID : 24
Format : UTF-8
Codec ID : S_TEXT/UTF8
Codec ID/Info : UTF-8 Plain Text
Duration : 1 h 34 min
Bit rate : 29 b/s
Count of elements : 666
Stream size : 20.4 KiB (0%)
Title : Polish
Language : Polish
Default : No
Forced : No

Text #23
ID : 25
Format : UTF-8
Codec ID : S_TEXT/UTF8
Codec ID/Info : UTF-8 Plain Text
Duration : 1 h 34 min
Bit rate : 28 b/s
Count of elements : 766
Stream size : 20.0 KiB (0%)
Title : Brazilian Portuguese
Language : Portuguese
Default : No
Forced : No

Text #24
ID : 26
Format : UTF-8
Codec ID : S_TEXT/UTF8
Codec ID/Info : UTF-8 Plain Text
Duration : 1 h 34 min
Bit rate : 30 b/s
Count of elements : 760
Stream size : 21.0 KiB (0%)
Title : Portuguese
Language : Portuguese
Default : No
Forced : No

Text #25
ID : 27
Format : UTF-8
Codec ID : S_TEXT/UTF8
Codec ID/Info : UTF-8 Plain Text
Duration : 1 h 34 min
Bit rate : 47 b/s
Count of elements : 768
Stream size : 33.1 KiB (0%)
Title : Russian
Language : Russian
Default : No
Forced : No

Text #26
ID : 28
Format : UTF-8
Codec ID : S_TEXT/UTF8
Codec ID/Info : UTF-8 Plain Text
Duration : 1 h 34 min
Bit rate : 29 b/s
Count of elements : 687
Stream size : 20.5 KiB (0%)
Title : Swedish
Language : Swedish
Default : No
Forced : No

Text #27
ID : 29
Format : UTF-8
Codec ID : S_TEXT/UTF8
Codec ID/Info : UTF-8 Plain Text
Duration : 1 h 34 min
Bit rate : 29 b/s
Count of elements : 665
Stream size : 20.4 KiB (0%)
Title : Turkish
Language : Turkish
Default : No
Forced : No

Text #28
ID : 30
Format : UTF-8
Codec ID : S_TEXT/UTF8
Codec ID/Info : UTF-8 Plain Text
Duration : 1 h 34 min
Bit rate : 47 b/s
Count of elements : 781
Stream size : 33.3 KiB (0%)
Title : Ukrainian
Language : Ukrainian
Default : No
Forced : No

Text #29
ID : 31
Format : UTF-8
Codec ID : S_TEXT/UTF8
Codec ID/Info : UTF-8 Plain Text
Duration : 1 h 34 min
Bit rate : 30 b/s
Count of elements : 767
Stream size : 20.8 KiB (0%)
Title : English
Language : English
Default : No
Forced : No

Text #30
ID : 32
Format : UTF-8
Codec ID : S_TEXT/UTF8
Codec ID/Info : UTF-8 Plain Text
Duration : 1 h 31 min
Bit rate : 33 b/s
Count of elements : 775
Stream size : 22.3 KiB (0%)
Title : Brazilian Portuguese
Language : Portuguese
Default : No
Forced : No





Der Parfumeur (2022) The Perfumier


Der Parfumeur (2022) The Perfumier


Der Parfumeur (2022) The Perfumier


Der Parfumeur (2022) The Perfumier


Der Parfumeur (2022) The Perfumier