Detention Adventure S01E02

TV Series
Detention Adventure S01E02

Detention Adventure S01E02
WEB-DL | MKV | 1920x1080 | English | H264 @ 8244 kbps | AC-3 @ 384 kbps | 11 min 5 s | 685 MiB
Subtitles: English


Three nerdy friends and the school bully must get themselves thrown into detention to find the entrance to a labyrinth of trap-laden tunnels protecting the fabled hidden lab of Alexander Graham Bell.

8ff23b2f04ef3570f4fbee465df6155a.mkv (684.8 MB)



General
Unique ID : 119678466891489371095324117743516337329 (0x5A093BFBA3C56B7B5FF5090418AD44B1)
Complete name : ./8ff23b2f04ef3570f4fbee465df6155a.mkv
Format : Matroska
Format version : Version 4 / Version 2
File size : 685 MiB
Duration : 11 min 5 s
Overall bit rate mode : Variable
Overall bit rate : 8 631 kb/s
Encoded date : UTC 2020-10-08 16:05:43
Writing application : mkvmerge v47.0.0 ('Black Flag') 64-bit
Writing library : libebml v1.3.10 + libmatroska v1.5.2

Video
ID : 1
Format : AVC
Format/Info : Advanced Video Codec
Format profile : High@L4
Format settings : CABAC / 4 Ref Frames
Format settings, CABAC : Yes
Format settings, RefFrames : 4 frames
Codec ID : V_MPEG4/ISO/AVC
Duration : 11 min 5 s
Bit rate mode : Variable
Bit rate : 8 245 kb/s
Maximum bit rate : 12.4 Mb/s
Width : 1 920 pixels
Height : 1 080 pixels
Display aspect ratio : 16:9
Frame rate mode : Constant
Frame rate : 23.976 (24000/1001) FPS
Color space : YUV
Chroma subsampling : 4:2:0
Bit depth : 8 bits
Scan type : Progressive
Bits/(Pixel*Frame) : 0.166
Stream size : 654 MiB (96%)
Default : Yes
Forced : No
Color range : Limited
Color primaries : BT.709
Transfer characteristics : BT.709
Matrix coefficients : BT.709

Audio
ID : 2
Format : AC-3
Format/Info : Audio Coding 3
Format settings, Endianness : Big
Codec ID : A_AC3
Duration : 11 min 5 s
Bit rate mode : Constant
Bit rate : 384 kb/s
Channel(s) : 6 channels
Channel positions : Front: L C R, Side: L R, LFE
Sampling rate : 48.0 kHz
Frame rate : 31.250 FPS (1536 SPF)
Bit depth : 16 bits
Compression mode : Lossy
Stream size : 30.5 MiB (4%)
Language : English
Service kind : Complete Main
Default : Yes
Forced : No

Text
ID : 3
Format : UTF-8
Codec ID : S_TEXT/UTF8
Codec ID/Info : UTF-8 Plain Text
Duration : 10 min 58 s
Bit rate : 71 b/s
Count of elements : 227
Stream size : 5.76 KiB (0%)
Language : English
Default : Yes
Forced : No





Detention Adventure S01E02


Detention Adventure S01E02


Detention Adventure S01E02


Detention Adventure S01E02


Detention Adventure S01E02