Detention Adventure S01E10

TV Series
Detention Adventure S01E10

Detention Adventure S01E10
WEB-DL | MKV | 1920x1080 | English | H264 @ 8235 kbps | AC-3 @ 384 kbps | 10 min 47 s | 666 MiB
Subtitles: English


Three nerdy friends and the school bully must get themselves thrown into detention to find the entrance to a labyrinth of trap-laden tunnels protecting the fabled hidden lab of Alexander Graham Bell.

982c63cdd7b54a4265f51ed35472de8c.mkv (665.8 MB)



General
Unique ID : 183655596204731737087110494881233579216 (0x8A2AC7FDEF7D80BFBE2DCFACBA092CD0)
Complete name : ./982c63cdd7b54a4265f51ed35472de8c.mkv
Format : Matroska
Format version : Version 4 / Version 2
File size : 666 MiB
Duration : 10 min 47 s
Overall bit rate mode : Variable
Overall bit rate : 8 622 kb/s
Encoded date : UTC 2020-10-08 16:11:46
Writing application : mkvmerge v47.0.0 ('Black Flag') 64-bit
Writing library : libebml v1.3.10 + libmatroska v1.5.2

Video
ID : 1
Format : AVC
Format/Info : Advanced Video Codec
Format profile : High@L4
Format settings : CABAC / 4 Ref Frames
Format settings, CABAC : Yes
Format settings, RefFrames : 4 frames
Codec ID : V_MPEG4/ISO/AVC
Duration : 10 min 47 s
Bit rate mode : Variable
Bit rate : 8 236 kb/s
Maximum bit rate : 12.4 Mb/s
Width : 1 920 pixels
Height : 1 080 pixels
Display aspect ratio : 16:9
Frame rate mode : Constant
Frame rate : 23.976 (24000/1001) FPS
Color space : YUV
Chroma subsampling : 4:2:0
Bit depth : 8 bits
Scan type : Progressive
Bits/(Pixel*Frame) : 0.166
Stream size : 636 MiB (96%)
Default : Yes
Forced : No
Color range : Limited
Color primaries : BT.709
Transfer characteristics : BT.709
Matrix coefficients : BT.709

Audio
ID : 2
Format : AC-3
Format/Info : Audio Coding 3
Format settings, Endianness : Big
Codec ID : A_AC3
Duration : 10 min 47 s
Bit rate mode : Constant
Bit rate : 384 kb/s
Channel(s) : 6 channels
Channel positions : Front: L C R, Side: L R, LFE
Sampling rate : 48.0 kHz
Frame rate : 31.250 FPS (1536 SPF)
Bit depth : 16 bits
Compression mode : Lossy
Stream size : 29.7 MiB (4%)
Language : English
Service kind : Complete Main
Default : Yes
Forced : No

Text
ID : 3
Format : UTF-8
Codec ID : S_TEXT/UTF8
Codec ID/Info : UTF-8 Plain Text
Duration : 10 min 23 s
Bit rate : 73 b/s
Count of elements : 228
Stream size : 5.59 KiB (0%)
Language : English
Default : Yes
Forced : No





Detention Adventure S01E10


Detention Adventure S01E10


Detention Adventure S01E10


Detention Adventure S01E10


Detention Adventure S01E10