Detention Adventure S02E02

TV Series
Detention Adventure S02E02

Detention Adventure S02E02
WEBRip | MKV | 1920x1080 | English | H264 @ 8215 kbps | AC-3 @ 384 kbps | 11 min 58 s | 737 MiB
Subtitles: English


Three nerdy friends and the school bully must get themselves thrown into detention to find the entrance to a labyrinth of trap-laden tunnels protecting the fabled hidden lab of Alexander Graham Bell.

fd9f79481078555144ad9ee657c7631e.mkv (736.5 MB)



General
Unique ID : 243129724650166112249721683079978098808 (0xB6E914EAC7555B60EE37DDB1B2C52078)
Complete name : ./fd9f79481078555144ad9ee657c7631e.mkv
Format : Matroska
Format version : Version 4 / Version 2
File size : 737 MiB
Duration : 11 min 58 s
Overall bit rate mode : Variable
Overall bit rate : 8 602 kb/s
Writing application : mkvmerge v50.0.0 ('Awakenings') 64-bit
Writing library : libebml v1.4.0 + libmatroska v1.6.2

Video
ID : 1
Format : AVC
Format/Info : Advanced Video Codec
Format profile : High@L4
Format settings : CABAC / 4 Ref Frames
Format settings, CABAC : Yes
Format settings, RefFrames : 4 frames
Codec ID : V_MPEG4/ISO/AVC
Duration : 11 min 58 s
Bit rate mode : Variable
Bit rate : 8 216 kb/s
Maximum bit rate : 12.4 Mb/s
Width : 1 920 pixels
Height : 1 080 pixels
Display aspect ratio : 16:9
Frame rate mode : Constant
Frame rate : 23.976 (24000/1001) FPS
Color space : YUV
Chroma subsampling : 4:2:0
Bit depth : 8 bits
Scan type : Progressive
Bits/(Pixel*Frame) : 0.165
Stream size : 703 MiB (96%)
Language : English
Default : Yes
Forced : No
Color range : Limited
Color primaries : BT.709
Transfer characteristics : BT.709
Matrix coefficients : BT.709

Audio
ID : 2
Format : AC-3
Format/Info : Audio Coding 3
Format settings, Endianness : Big
Codec ID : A_AC3
Duration : 11 min 58 s
Bit rate mode : Constant
Bit rate : 384 kb/s
Channel(s) : 6 channels
Channel positions : Front: L C R, Side: L R, LFE
Sampling rate : 48.0 kHz
Frame rate : 31.250 FPS (1536 SPF)
Bit depth : 16 bits
Compression mode : Lossy
Stream size : 32.9 MiB (4%)
Language : English
Service kind : Complete Main
Default : Yes
Forced : No

Text
ID : 3
Format : UTF-8
Codec ID : S_TEXT/UTF8
Codec ID/Info : UTF-8 Plain Text
Duration : 11 min 33 s
Bit rate : 90 b/s
Count of elements : 262
Stream size : 7.67 KiB (0%)
Title : English (SDH)
Language : English
Default : No
Forced : No





Detention Adventure S02E02


Detention Adventure S02E02


Detention Adventure S02E02


Detention Adventure S02E02


Detention Adventure S02E02