Detention Adventure S02E09

TV Series
Detention Adventure S02E09

Detention Adventure S02E09
WEBRip | MKV | 1280x720 | English | H264 @ 3392 kbps | AC-3 @ 384 kbps | 12 min 6 s | 327 MiB
Subtitles: English


Three nerdy friends and the school bully must get themselves thrown into detention to find the entrance to a labyrinth of trap-laden tunnels protecting the fabled hidden lab of Alexander Graham Bell.

e4539cc70a1eba7fb8366755850dd262.mkv (327.1 MB)



General
Unique ID : 201337070274040601022358423603026752230 (0x97781BF82CC0E247A31D196F31BE72E6)
Complete name : ./e4539cc70a1eba7fb8366755850dd262.mkv
Format : Matroska
Format version : Version 4 / Version 2
File size : 327 MiB
Duration : 12 min 6 s
Overall bit rate mode : Variable
Overall bit rate : 3 779 kb/s
Writing application : mkvmerge v50.0.0 ('Awakenings') 64-bit
Writing library : libebml v1.4.0 + libmatroska v1.6.2

Video
ID : 1
Format : AVC
Format/Info : Advanced Video Codec
Format profile : Main@L3.1
Format settings : CABAC / 4 Ref Frames
Format settings, CABAC : Yes
Format settings, RefFrames : 4 frames
Codec ID : V_MPEG4/ISO/AVC
Duration : 12 min 6 s
Bit rate mode : Variable
Bit rate : 3 393 kb/s
Maximum bit rate : 5 100 kb/s
Width : 1 280 pixels
Height : 720 pixels
Display aspect ratio : 16:9
Frame rate mode : Constant
Frame rate : 23.976 (24000/1001) FPS
Color space : YUV
Chroma subsampling : 4:2:0
Bit depth : 8 bits
Scan type : Progressive
Bits/(Pixel*Frame) : 0.154
Stream size : 294 MiB (90%)
Language : English
Default : Yes
Forced : No
Color range : Limited
Color primaries : BT.709
Transfer characteristics : BT.709
Matrix coefficients : BT.709

Audio
ID : 2
Format : AC-3
Format/Info : Audio Coding 3
Format settings, Endianness : Big
Codec ID : A_AC3
Duration : 12 min 6 s
Bit rate mode : Constant
Bit rate : 384 kb/s
Channel(s) : 6 channels
Channel positions : Front: L C R, Side: L R, LFE
Sampling rate : 48.0 kHz
Frame rate : 31.250 FPS (1536 SPF)
Bit depth : 16 bits
Compression mode : Lossy
Stream size : 33.2 MiB (10%)
Language : English
Service kind : Complete Main
Default : Yes
Forced : No

Text
ID : 3
Format : UTF-8
Codec ID : S_TEXT/UTF8
Codec ID/Info : UTF-8 Plain Text
Duration : 11 min 40 s
Bit rate : 84 b/s
Count of elements : 268
Stream size : 7.19 KiB (0%)
Title : English (SDH)
Language : English
Default : No
Forced : No





Detention Adventure S02E09


Detention Adventure S02E09


Detention Adventure S02E09


Detention Adventure S02E09


Detention Adventure S02E09