Devils S01E05

TV Series
Devils S01E05

Devils S01E05
WEBRip | MKV | 1280x720 | H264 @ 913 kbps | AAC @ 128 kbps | 50 min 9 s | 375 MiB
Subtitles: Suomi, Svenska, Dansk
Genre: Drama


After being implicated in a deadly scandal, a trader at a leading London bank fights to clear his name, but instead uncovers an intercontinental conspiracy masterminded by powerful forces operating in the shadows.

d8cf5ea1e2ac402e9e2baa23305d826c.mkv (374.7 MB)



General
Unique ID : 27500176292866852210421528347923103036 (0x14B0575F6D11DA43F9CC704C0F3EBD3C)
Complete name : ./d8cf5ea1e2ac402e9e2baa23305d826c.mkv
Format : Matroska
Format version : Version 4 / Version 2
File size : 375 MiB
Duration : 50 min 9 s
Overall bit rate : 1 044 kb/s
Encoded date : UTC 2020-06-02 06:01:24
Writing application : mkvmerge v43.0.0 ('The Quartermaster') 64-bit
Writing library : libebml v1.3.10 + libmatroska v1.5.2

Video
ID : 1
Format : AVC
Format/Info : Advanced Video Codec
Format profile : Main@L3.1
Format settings : CABAC / 4 Ref Frames
Format settings, CABAC : Yes
Format settings, RefFrames : 4 frames
Codec ID : V_MPEG4/ISO/AVC
Duration : 50 min 9 s
Bit rate : 914 kb/s
Nominal bit rate : 15.0 Mb/s
Width : 1 280 pixels
Height : 720 pixels
Display aspect ratio : 16:9
Frame rate mode : Constant
Frame rate : 25.000 FPS
Color space : YUV
Chroma subsampling : 4:2:0
Bit depth : 8 bits
Scan type : Progressive
Bits/(Pixel*Frame) : 0.040
Stream size : 328 MiB (87%)
Writing library : x264 core 148
Encoding settings : cabac=1 / ref=3 / deblock=1:0:0 / analyse=0x1:0x131 / me=hex / subme=10 / psy=0 / mixed_ref=1 / me_range=16 / chroma_me=1 / trellis=2 / 8x8dct=0 / cqm=0 / deadzone=21,11 / fast_pskip=1 / chroma_qp_offset=0 / threads=28 / lookahead_threads=2 / sliced_threads=0 / nr=0 / decimate=1 / interlaced=0 / paff=0 / bluray_compat=0 / constrained_intra=0 / bframes=3 / b_pyramid=2 / b_adapt=1 / b_bias=0 / direct=3 / weightb=1 / open_gop=0 / weightp=2 / keyint=250 / keyint_min=25 / scenecut=0 / intra_refresh=0 / rc_lookahead=40 / rc=cbr / mbtree=1 / bitrate=15000 / ratetol=1.0 / qcomp=0.60 / qpmin=0 / qpmax=69 / qpstep=4 / vbv_maxrate=15000 / vbv_bufsize=15000 / nal_hrd=cbr / filler=1 / ip_ratio=1.00 / aq=1:0.00
Default : Yes
Forced : No
Color range : Limited
Color primaries : BT.709
Transfer characteristics : BT.709
Matrix coefficients : BT.709

Audio
ID : 2
Format : AAC
Format/Info : Advanced Audio Codec
Format profile : LC
Codec ID : A_AAC-2
Duration : 50 min 9 s
Bit rate : 128 kb/s
Channel(s) : 2 channels
Channel positions : Front: L R
Sampling rate : 48.0 kHz
Frame rate : 46.875 FPS (1024 SPF)
Compression mode : Lossy
Stream size : 45.9 MiB (12%)
Default : Yes
Forced : No

Text #1
ID : 3
Format : UTF-8
Codec ID : S_TEXT/UTF8
Codec ID/Info : UTF-8 Plain Text
Duration : 48 min 33 s
Bit rate : 48 b/s
Count of elements : 458
Stream size : 17.4 KiB (0%)
Title : Danish
Language : Danish
Default : No
Forced : No

Text #2
ID : 4
Format : UTF-8
Codec ID : S_TEXT/UTF8
Codec ID/Info : UTF-8 Plain Text
Duration : 48 min 33 s
Bit rate : 47 b/s
Count of elements : 457
Stream size : 17.0 KiB (0%)
Title : Finnish
Language : Finnish
Default : No
Forced : No

Text #3
ID : 5
Format : UTF-8
Codec ID : S_TEXT/UTF8
Codec ID/Info : UTF-8 Plain Text
Duration : 48 min 33 s
Bit rate : 51 b/s
Count of elements : 443
Stream size : 18.2 KiB (0%)
Title : Norwegian
Language : Norwegian
Default : No
Forced : No

Text #4
ID : 6
Format : UTF-8
Codec ID : S_TEXT/UTF8
Codec ID/Info : UTF-8 Plain Text
Duration : 48 min 33 s
Bit rate : 50 b/s
Count of elements : 461
Stream size : 17.8 KiB (0%)
Title : Swedish
Language : Swedish
Default : No
Forced : No





Devils S01E05


Devils S01E05


Devils S01E05


Devils S01E05


Devils S01E05