Eater's Guide to the World S01E01

TV Series
Eater's Guide to the World S01E01

Eater's Guide to the World S01E01
WEBRip | MKV | 3840x2160 | English | H265 @ 15889 kbps | E-AC-3 @ 256 kbps | 28 min 52 s | 3.26 GiB
Subtitles: Español, English


Explore some of the most satisfying culinary destinations around the world in a quest to find the most unexpected places to score an epic meal, while drinking and dining with the locals along the way.

2f65977411e7d5772518aacc8db582c0.mkv (3.3 GB)



General
Unique ID : 49679364577867368730518757970323878463 (0x255FE5C82FED83E456CB0D13A5B6B23F)
Complete name : ./2f65977411e7d5772518aacc8db582c0.mkv
Format : Matroska
Format version : Version 4 / Version 2
File size : 3.26 GiB
Duration : 28 min 52 s
Overall bit rate : 16.1 Mb/s
Writing application : mkvmerge v51.0.0 ('I Wish') 64-bit
Writing library : libebml v1.4.0 + libmatroska v1.6.2

Video
ID : 1
Format : HEVC
Format/Info : High Efficiency Video Coding
Format profile : Main 10@L5.1@Main
Codec ID : V_MPEGH/ISO/HEVC
Duration : 28 min 52 s
Bit rate : 15.9 Mb/s
Width : 3 840 pixels
Height : 2 160 pixels
Display aspect ratio : 16:9
Frame rate mode : Constant
Frame rate : 23.976 (24000/1001) FPS
Color space : YUV
Chroma subsampling : 4:2:0
Bit depth : 10 bits
Bits/(Pixel*Frame) : 0.080
Stream size : 3.20 GiB (98%)
Language : English
Default : Yes
Forced : No

Audio
ID : 2
Format : E-AC-3
Format/Info : Enhanced Audio Coding 3
Format settings, Endianness : Big
Codec ID : A_EAC3
Duration : 28 min 52 s
Bit rate mode : Constant
Bit rate : 256 kb/s
Channel(s) : 6 channels
Channel positions : Front: L C R, Side: L R, LFE
Sampling rate : 48.0 kHz
Frame rate : 187.500 FPS (256 SPF)
Compression mode : Lossy
Stream size : 52.9 MiB (2%)
Language : English
Service kind : Complete Main
Default : Yes
Forced : No

Text #1
ID : 3
Format : UTF-8
Codec ID : S_TEXT/UTF8
Codec ID/Info : UTF-8 Plain Text
Duration : 28 min 25 s
Bit rate : 118 b/s
Count of elements : 564
Stream size : 24.6 KiB (0%)
Title : English
Language : English
Default : No
Forced : No

Text #2
ID : 4
Format : UTF-8
Codec ID : S_TEXT/UTF8
Codec ID/Info : UTF-8 Plain Text
Duration : 28 min 25 s
Bit rate : 120 b/s
Count of elements : 563
Stream size : 25.0 KiB (0%)
Title : Spanish; Castilian
Language : Spanish
Default : No
Forced : No





Eater's Guide to the World S01E01


Eater's Guide to the World S01E01


Eater's Guide to the World S01E01


Eater's Guide to the World S01E01


Eater's Guide to the World S01E01