Eater's Guide to the World S01E03

TV Series
Eater's Guide to the World S01E03

Eater's Guide to the World S01E03
WEBRip | MKV | 3840x2160 | English | H265 @ 15876 kbps | E-AC-3 @ 256 kbps | 27 min 41 s | 3.12 GiB
Subtitles: Español, English


Explore some of the most satisfying culinary destinations around the world in a quest to find the most unexpected places to score an epic meal, while drinking and dining with the locals along the way.

b50d84e26e773ba5f7bb6ba76c9f4f11.mkv (3.1 GB)



General
Unique ID : 172436382290687912806237281987779735644 (0x81BA0A0A07A747FB40076F456F0DB05C)
Complete name : ./b50d84e26e773ba5f7bb6ba76c9f4f11.mkv
Format : Matroska
Format version : Version 4 / Version 2
File size : 3.12 GiB
Duration : 27 min 41 s
Overall bit rate : 16.1 Mb/s
Writing application : mkvmerge v51.0.0 ('I Wish') 64-bit
Writing library : libebml v1.4.0 + libmatroska v1.6.2

Video
ID : 1
Format : HEVC
Format/Info : High Efficiency Video Coding
Format profile : Main 10@L5.1@Main
Codec ID : V_MPEGH/ISO/HEVC
Duration : 27 min 41 s
Bit rate : 15.9 Mb/s
Width : 3 840 pixels
Height : 2 160 pixels
Display aspect ratio : 16:9
Frame rate mode : Constant
Frame rate : 23.976 (24000/1001) FPS
Color space : YUV
Chroma subsampling : 4:2:0
Bit depth : 10 bits
Bits/(Pixel*Frame) : 0.080
Stream size : 3.07 GiB (98%)
Language : English
Default : Yes
Forced : No

Audio
ID : 2
Format : E-AC-3
Format/Info : Enhanced Audio Coding 3
Format settings, Endianness : Big
Codec ID : A_EAC3
Duration : 27 min 41 s
Bit rate mode : Constant
Bit rate : 256 kb/s
Channel(s) : 6 channels
Channel positions : Front: L C R, Side: L R, LFE
Sampling rate : 48.0 kHz
Frame rate : 187.500 FPS (256 SPF)
Compression mode : Lossy
Stream size : 50.7 MiB (2%)
Language : English
Service kind : Complete Main
Default : Yes
Forced : No

Text #1
ID : 3
Format : UTF-8
Codec ID : S_TEXT/UTF8
Codec ID/Info : UTF-8 Plain Text
Duration : 27 min 25 s
Bit rate : 120 b/s
Count of elements : 542
Stream size : 24.2 KiB (0%)
Title : English
Language : English
Default : No
Forced : No

Text #2
ID : 4
Format : UTF-8
Codec ID : S_TEXT/UTF8
Codec ID/Info : UTF-8 Plain Text
Duration : 27 min 25 s
Bit rate : 124 b/s
Count of elements : 557
Stream size : 24.9 KiB (0%)
Title : Spanish; Castilian
Language : Spanish
Default : No
Forced : No





Eater's Guide to the World S01E03


Eater's Guide to the World S01E03


Eater's Guide to the World S01E03


Eater's Guide to the World S01E03


Eater's Guide to the World S01E03