Emily's Wonder Lab S01E02

TV Series
Emily's Wonder Lab S01E02

Emily's Wonder Lab S01E02
WEB-DL | MKV | 1280x720 | English | H264 @ 2201 kbps | E-AC-3 @ 640 kbps | 14 min 5 s | 287 MiB
Subtitles: ภาษาไทย, Français, tiếng Việt, Español, Magyar, 日本語, עברית, 한국어, Русский, Ελληνικά, Nederlands, Dansk, Bahasa Indonesia, Bokmål, 中文, Suomi, Polski, Türkçe, English, Română, العربية, Deutsch, Svenska, Italiano, Português, Čeština
Genre: Family


Science-loving host Emily Calandrelli makes STEAM fun with activities, demonstrations and at-home experiments that'll make you think — and blow your mind!

7c4891925b3e4bdf84bcf05473383cdd.mkv (287.3 MB)



General
Unique ID : 308097351747067498426424838823574563226 (0xE7C9643CB9E8ECB42F404CAA389CE99A)
Complete name : ./7c4891925b3e4bdf84bcf05473383cdd.mkv
Format : Matroska
Format version : Version 4 / Version 2
File size : 287 MiB
Duration : 14 min 5 s
Overall bit rate mode : Variable
Overall bit rate : 2 848 kb/s
Encoded date : UTC 2020-08-25 14:33:35
Writing application : mkvmerge v38.0.0 ('The Silent Type') 64-bit
Writing library : libebml v1.3.9 + libmatroska v1.5.2

Video
ID : 1
Format : AVC
Format/Info : Advanced Video Codec
Format profile : Main@L3.1
Format settings : CABAC / 3 Ref Frames
Format settings, CABAC : Yes
Format settings, RefFrames : 3 frames
Codec ID : V_MPEG4/ISO/AVC
Duration : 14 min 5 s
Bit rate mode : Variable
Bit rate : 2 202 kb/s
Nominal bit rate : 2 490 kb/s
Maximum bit rate : 3 735 kb/s
Width : 1 280 pixels
Height : 720 pixels
Display aspect ratio : 16:9
Frame rate mode : Constant
Frame rate : 23.976 (24000/1001) FPS
Color space : YUV
Chroma subsampling : 4:2:0
Bit depth : 8 bits
Scan type : Progressive
Bits/(Pixel*Frame) : 0.100
Stream size : 222 MiB (77%)
Writing library : x264 core 148 r2717 0d2410d
Encoding settings : cabac=1 / ref=3 / deblock=1:0:0 / analyse=0x1:0x111 / me=umh / subme=10 / psy=1 / psy_rd=1.00:0.00 / mixed_ref=1 / me_range=24 / chroma_me=1 / trellis=2 / 8x8dct=0 / cqm=0 / deadzone=21,11 / fast_pskip=1 / chroma_qp_offset=-2 / threads=6 / lookahead_threads=1 / sliced_threads=0 / nr=0 / decimate=1 / interlaced=0 / bluray_compat=0 / stitchable=1 / constrained_intra=0 / bframes=2 / b_pyramid=0 / b_adapt=2 / b_bias=0 / direct=3 / weightb=1 / open_gop=0 / weightp=2 / keyint=250 / keyint_min=23 / scenecut=0 / intra_refresh=0 / rc_lookahead=48 / rc=2pass / mbtree=1 / bitrate=2490 / ratetol=1.0 / qcomp=0.50 / qpmin=6 / qpmax=51 / qpstep=4 / cplxblur=20.0 / qblur=0.5 / vbv_maxrate=3735 / vbv_bufsize=4980 / nal_hrd=vbr / filler=0 / ip_ratio=1.40 / aq=1:1.00
Default : Yes
Forced : No

Audio
ID : 2
Format : E-AC-3
Format/Info : Enhanced Audio Coding 3
Format settings, Endianness : Big
Codec ID : A_EAC3
Duration : 14 min 5 s
Bit rate mode : Constant
Bit rate : 640 kb/s
Channel(s) : 6 channels
Channel positions : Front: L C R, Side: L R, LFE
Sampling rate : 48.0 kHz
Frame rate : 187.500 FPS (256 SPF)
Compression mode : Lossy
Stream size : 64.5 MiB (22%)
Language : English
Service kind : Complete Main
Default : Yes
Forced : No

Text #1
ID : 3
Format : UTF-8
Codec ID : S_TEXT/UTF8
Codec ID/Info : UTF-8 Plain Text
Duration : 12 min 16 s
Bit rate : 117 b/s
Count of elements : 332
Stream size : 10.6 KiB (0%)
Title : SDH
Language : English
Default : No
Forced : No

Text #2
ID : 4
Format : UTF-8
Codec ID : S_TEXT/UTF8
Codec ID/Info : UTF-8 Plain Text
Duration : 12 min 19 s
Bit rate : 163 b/s
Count of elements : 305
Stream size : 14.8 KiB (0%)
Language : Arabic
Default : No
Forced : No

Text #3
ID : 5
Format : UTF-8
Codec ID : S_TEXT/UTF8
Codec ID/Info : UTF-8 Plain Text
Duration : 12 min 19 s
Bit rate : 83 b/s
Count of elements : 280
Stream size : 7.56 KiB (0%)
Language : Czech
Default : No
Forced : No

Text #4
ID : 6
Format : UTF-8
Codec ID : S_TEXT/UTF8
Codec ID/Info : UTF-8 Plain Text
Duration : 12 min 20 s
Bit rate : 86 b/s
Count of elements : 285
Stream size : 7.85 KiB (0%)
Language : Danish
Default : No
Forced : No

Text #5
ID : 7
Format : UTF-8
Codec ID : S_TEXT/UTF8
Codec ID/Info : UTF-8 Plain Text
Duration : 12 min 20 s
Bit rate : 87 b/s
Count of elements : 270
Stream size : 7.94 KiB (0%)
Language : German
Default : No
Forced : No

Text #6
ID : 8
Format : UTF-8
Codec ID : S_TEXT/UTF8
Codec ID/Info : UTF-8 Plain Text
Duration : 12 min 19 s
Bit rate : 143 b/s
Count of elements : 287
Stream size : 12.9 KiB (0%)
Language : Greek
Default : No
Forced : No

Text #7
ID : 9
Format : UTF-8
Codec ID : S_TEXT/UTF8
Codec ID/Info : UTF-8 Plain Text
Duration : 12 min 20 s
Bit rate : 80 b/s
Count of elements : 300
Stream size : 7.27 KiB (0%)
Title : Latin American
Language : Spanish
Default : No
Forced : No

Text #8
ID : 10
Format : UTF-8
Codec ID : S_TEXT/UTF8
Codec ID/Info : UTF-8 Plain Text
Duration : 12 min 21 s
Bit rate : 82 b/s
Count of elements : 304
Stream size : 7.43 KiB (0%)
Title : European
Language : Spanish
Default : No
Forced : No

Text #9
ID : 11
Format : UTF-8
Codec ID : S_TEXT/UTF8
Codec ID/Info : UTF-8 Plain Text
Duration : 12 min 18 s
Bit rate : 73 b/s
Count of elements : 211
Stream size : 6.63 KiB (0%)
Language : Finnish
Default : No
Forced : No

Text #10
ID : 12
Format : UTF-8
Codec ID : S_TEXT/UTF8
Codec ID/Info : UTF-8 Plain Text
Duration : 12 min 19 s
Bit rate : 84 b/s
Count of elements : 289
Stream size : 7.61 KiB (0%)
Language : French
Default : No
Forced : No

Text #11
ID : 13
Format : UTF-8
Codec ID : S_TEXT/UTF8
Codec ID/Info : UTF-8 Plain Text
Duration : 12 min 19 s
Bit rate : 154 b/s
Count of elements : 297
Stream size : 13.9 KiB (0%)
Language : Hebrew
Default : No
Forced : No

Text #12
ID : 14
Format : UTF-8
Codec ID : S_TEXT/UTF8
Codec ID/Info : UTF-8 Plain Text
Duration : 12 min 20 s
Bit rate : 84 b/s
Count of elements : 265
Stream size : 7.62 KiB (0%)
Language : Hungarian
Default : No
Forced : No

Text #13
ID : 15
Format : UTF-8
Codec ID : S_TEXT/UTF8
Codec ID/Info : UTF-8 Plain Text
Duration : 12 min 20 s
Bit rate : 85 b/s
Count of elements : 271
Stream size : 7.76 KiB (0%)
Language : Indonesian
Default : No
Forced : No

Text #14
ID : 16
Format : UTF-8
Codec ID : S_TEXT/UTF8
Codec ID/Info : UTF-8 Plain Text
Duration : 12 min 19 s
Bit rate : 94 b/s
Count of elements : 252
Stream size : 8.56 KiB (0%)
Language : Italian
Default : No
Forced : No

Text #15
ID : 17
Format : UTF-8
Codec ID : S_TEXT/UTF8
Codec ID/Info : UTF-8 Plain Text
Duration : 12 min 19 s
Bit rate : 109 b/s
Count of elements : 261
Stream size : 9.93 KiB (0%)
Language : Japanese
Default : No
Forced : No

Text #16
ID : 18
Format : UTF-8
Codec ID : S_TEXT/UTF8
Codec ID/Info : UTF-8 Plain Text
Duration : 12 min 19 s
Bit rate : 122 b/s
Count of elements : 303
Stream size : 11.1 KiB (0%)
Language : Korean
Default : No
Forced : No

Text #17
ID : 19
Format : UTF-8
Codec ID : S_TEXT/UTF8
Codec ID/Info : UTF-8 Plain Text
Duration : 12 min 19 s
Bit rate : 82 b/s
Count of elements : 243
Stream size : 7.43 KiB (0%)
Language : Norwegian Bokmal
Default : No
Forced : No

Text #18
ID : 20
Format : UTF-8
Codec ID : S_TEXT/UTF8
Codec ID/Info : UTF-8 Plain Text
Duration : 12 min 20 s
Bit rate : 77 b/s
Count of elements : 270
Stream size : 6.99 KiB (0%)
Language : Dutch
Default : No
Forced : No

Text #19
ID : 21
Format : UTF-8
Codec ID : S_TEXT/UTF8
Codec ID/Info : UTF-8 Plain Text
Duration : 12 min 19 s
Bit rate : 74 b/s
Count of elements : 250
Stream size : 6.74 KiB (0%)
Language : Polish
Default : No
Forced : No

Text #20
ID : 22
Format : UTF-8
Codec ID : S_TEXT/UTF8
Codec ID/Info : UTF-8 Plain Text
Duration : 12 min 19 s
Bit rate : 83 b/s
Count of elements : 291
Stream size : 7.58 KiB (0%)
Title : European
Language : Portuguese
Default : No
Forced : No

Text #21
ID : 23
Format : UTF-8
Codec ID : S_TEXT/UTF8
Codec ID/Info : UTF-8 Plain Text
Duration : 12 min 20 s
Bit rate : 81 b/s
Count of elements : 287
Stream size : 7.41 KiB (0%)
Title : Brazilian
Language : Portuguese
Default : No
Forced : No

Text #22
ID : 24
Format : UTF-8
Codec ID : S_TEXT/UTF8
Codec ID/Info : UTF-8 Plain Text
Duration : 12 min 19 s
Bit rate : 93 b/s
Count of elements : 259
Stream size : 8.45 KiB (0%)
Language : Romanian
Default : No
Forced : No

Text #23
ID : 25
Format : UTF-8
Codec ID : S_TEXT/UTF8
Codec ID/Info : UTF-8 Plain Text
Duration : 12 min 20 s
Bit rate : 147 b/s
Count of elements : 275
Stream size : 13.3 KiB (0%)
Language : Russian
Default : No
Forced : No

Text #24
ID : 26
Format : UTF-8
Codec ID : S_TEXT/UTF8
Codec ID/Info : UTF-8 Plain Text
Duration : 12 min 19 s
Bit rate : 82 b/s
Count of elements : 273
Stream size : 7.41 KiB (0%)
Language : Swedish
Default : No
Forced : No

Text #25
ID : 27
Format : UTF-8
Codec ID : S_TEXT/UTF8
Codec ID/Info : UTF-8 Plain Text
Duration : 12 min 19 s
Bit rate : 231 b/s
Count of elements : 305
Stream size : 20.9 KiB (0%)
Language : Thai
Default : No
Forced : No

Text #26
ID : 28
Format : UTF-8
Codec ID : S_TEXT/UTF8
Codec ID/Info : UTF-8 Plain Text
Duration : 12 min 20 s
Bit rate : 94 b/s
Count of elements : 267
Stream size : 8.54 KiB (0%)
Language : Turkish
Default : No
Forced : No

Text #27
ID : 29
Format : UTF-8
Codec ID : S_TEXT/UTF8
Codec ID/Info : UTF-8 Plain Text
Duration : 12 min 19 s
Bit rate : 116 b/s
Count of elements : 300
Stream size : 10.5 KiB (0%)
Language : Vietnamese
Default : No
Forced : No

Text #28
ID : 30
Format : UTF-8
Codec ID : S_TEXT/UTF8
Codec ID/Info : UTF-8 Plain Text
Duration : 12 min 17 s
Bit rate : 102 b/s
Count of elements : 309
Stream size : 9.22 KiB (0%)
Title : Simplified
Language : Chinese
Default : No
Forced : No

Text #29
ID : 31
Format : UTF-8
Codec ID : S_TEXT/UTF8
Codec ID/Info : UTF-8 Plain Text
Duration : 12 min 19 s
Bit rate : 98 b/s
Count of elements : 304
Stream size : 8.87 KiB (0%)
Title : Traditional
Language : Chinese
Default : No
Forced : No





Emily's Wonder Lab S01E02


Emily's Wonder Lab S01E02


Emily's Wonder Lab S01E02


Emily's Wonder Lab S01E02


Emily's Wonder Lab S01E02