Extraction (2020)

Video
Extraction (2020)

Extraction (2020)
WEB-DL | MKV | 1920x1080 | English | H265 @ 4699 kbps | E-AC-3 @ 768 kbps | 1 h 57 min | 4.44 GiB
Subtitles: ภาษาไทย, Français, tiếng Việt, Español, Magyar, 日本語, עברית, 한국어, Русский, Ελληνικά, Nederlands, Dansk, Bahasa Indonesia, Bokmål, 中文, Suomi, Polski, Türkçe, English, Română, العربية, Deutsch, Svenska, Italiano, Português, Čeština
Genre: Action, Thriller

Tyler Rake, a fearless black market mercenary, embarks on the most deadly extraction of his career when he's enlisted to rescue the kidnapped son of an imprisoned international crime lord.

4d2658610bd9e02c876e31aee9ed6d38.mkv (4.4 GB)



General
Unique ID : 195587770744187123168426124512070975559 (0x9324D59E1219D99E60F6303D9793C047)
Complete name : ./4d2658610bd9e02c876e31aee9ed6d38.mkv
Format : Matroska
Format version : Version 4 / Version 2
File size : 4.44 GiB
Duration : 1 h 57 min
Overall bit rate : 5 414 kb/s
Encoded date : UTC 2020-04-24 07:24:59
Writing application : mkvmerge v44.0.0 ('Domino') 64-bit
Writing library : libebml v1.3.10 + libmatroska v1.5.2

Video
ID : 1
Format : HEVC
Format/Info : High Efficiency Video Coding
Format profile : Main 10@L4@Main
Codec ID : V_MPEGH/ISO/HEVC
Duration : 1 h 56 min
Bit rate : 4 700 kb/s
Width : 1 920 pixels
Height : 1 080 pixels
Display aspect ratio : 16:9
Frame rate mode : Constant
Frame rate : 24.000 FPS
Color space : YUV
Chroma subsampling : 4:2:0 (Type 2)
Bit depth : 10 bits
Bits/(Pixel*Frame) : 0.094
Stream size : 3.81 GiB (86%)
Default : Yes
Forced : No
Color range : Limited
Color primaries : BT.2020
Transfer characteristics : PQ
Matrix coefficients : BT.2020 non-constant
Mastering display color primaries : R: x=0.680000 y=0.320000, G: x=0.265000 y=0.690000, B: x=0.150000 y=0.060000, White point: x=0.312700 y=0.329000
Mastering display luminance : min: 0.0001 cd/m2, max: 1000.0000 cd/m2
Maximum Content Light Level : 2873 cd/m2
Maximum Frame-Average Light Level : 482 cd/m2

Audio
ID : 2
Format : E-AC-3
Format/Info : Enhanced Audio Coding 3
Format profile : E-AC-3+Atmos / E-AC-3
Format settings, Endianness : Big
Codec ID : A_EAC3
Duration : 1 h 57 min
Bit rate mode : Constant
Bit rate : 768 kb/s
Channel(s) : 15 objects / 6 channels
Channel positions : 15 objects / Front: L C R, Side: L R, LFE
Sampling rate : 48.0 kHz
Frame rate : 187.500 FPS (256 SPF)
Compression mode : Lossy
Stream size : 645 MiB (14%)
Title : English
Language : English
Service kind : Complete Main
Default : Yes
Forced : No

Text #1
ID : 3
Format : UTF-8
Codec ID : S_TEXT/UTF8
Codec ID/Info : UTF-8 Plain Text
Duration : 1 h 39 min
Bit rate : 34 b/s
Count of elements : 925
Stream size : 24.9 KiB (0%)
Title : English
Language : English
Default : No
Forced : No

Text #2
ID : 4
Format : UTF-8
Codec ID : S_TEXT/UTF8
Codec ID/Info : UTF-8 Plain Text
Duration : 1 h 22 min
Bit rate : 6 b/s
Count of elements : 167
Stream size : 3.83 KiB (0%)
Title : English (FORCED)
Language : English
Default : No
Forced : Yes

Text #3
ID : 5
Format : UTF-8
Codec ID : S_TEXT/UTF8
Codec ID/Info : UTF-8 Plain Text
Duration : 1 h 55 min
Bit rate : 35 b/s
Count of elements : 685
Stream size : 29.6 KiB (0%)
Title : Arabic
Language : Arabic
Default : No
Forced : No

Text #4
ID : 6
Format : UTF-8
Codec ID : S_TEXT/UTF8
Codec ID/Info : UTF-8 Plain Text
Duration : 1 h 55 min
Bit rate : 22 b/s
Count of elements : 681
Stream size : 19.2 KiB (0%)
Title : Chinese Simplified
Language : Chinese
Default : No
Forced : No

Text #5
ID : 7
Format : UTF-8
Codec ID : S_TEXT/UTF8
Codec ID/Info : UTF-8 Plain Text
Duration : 1 h 55 min
Bit rate : 21 b/s
Count of elements : 744
Stream size : 18.5 KiB (0%)
Title : Chinese Traditional
Language : Chinese
Default : No
Forced : No

Text #6
ID : 8
Format : UTF-8
Codec ID : S_TEXT/UTF8
Codec ID/Info : UTF-8 Plain Text
Duration : 1 h 55 min
Bit rate : 19 b/s
Count of elements : 691
Stream size : 16.3 KiB (0%)
Title : Czech
Language : Czech
Default : No
Forced : No

Text #7
ID : 9
Format : UTF-8
Codec ID : S_TEXT/UTF8
Codec ID/Info : UTF-8 Plain Text
Duration : 1 h 55 min
Bit rate : 19 b/s
Count of elements : 673
Stream size : 16.4 KiB (0%)
Title : Danish
Language : Danish
Default : No
Forced : No

Text #8
ID : 10
Format : UTF-8
Codec ID : S_TEXT/UTF8
Codec ID/Info : UTF-8 Plain Text
Duration : 1 h 55 min
Bit rate : 19 b/s
Count of elements : 667
Stream size : 16.2 KiB (0%)
Title : Dutch
Language : Dutch
Default : No
Forced : No

Text #9
ID : 11
Format : UTF-8
Codec ID : S_TEXT/UTF8
Codec ID/Info : UTF-8 Plain Text
Duration : 1 h 55 min
Bit rate : 19 b/s
Count of elements : 674
Stream size : 16.1 KiB (0%)
Title : Finnish
Language : Finnish
Default : No
Forced : No

Text #10
ID : 12
Format : UTF-8
Codec ID : S_TEXT/UTF8
Codec ID/Info : UTF-8 Plain Text
Duration : 1 h 55 min
Bit rate : 20 b/s
Count of elements : 689
Stream size : 17.2 KiB (0%)
Title : French
Language : French
Default : No
Forced : No

Text #11
ID : 13
Format : UTF-8
Codec ID : S_TEXT/UTF8
Codec ID/Info : UTF-8 Plain Text
Duration : 1 h 55 min
Bit rate : 20 b/s
Count of elements : 680
Stream size : 17.6 KiB (0%)
Title : German
Language : German
Default : No
Forced : No

Text #12
ID : 14
Format : UTF-8
Codec ID : S_TEXT/UTF8
Codec ID/Info : UTF-8 Plain Text
Duration : 1 h 55 min
Bit rate : 32 b/s
Count of elements : 699
Stream size : 27.7 KiB (0%)
Title : Greek
Language : Greek
Default : No
Forced : No

Text #13
ID : 15
Format : UTF-8
Codec ID : S_TEXT/UTF8
Codec ID/Info : UTF-8 Plain Text
Duration : 1 h 55 min
Bit rate : 33 b/s
Count of elements : 677
Stream size : 28.1 KiB (0%)
Title : Hebrew
Language : Hebrew
Default : No
Forced : No

Text #14
ID : 16
Format : UTF-8
Codec ID : S_TEXT/UTF8
Codec ID/Info : UTF-8 Plain Text
Duration : 1 h 55 min
Bit rate : 19 b/s
Count of elements : 674
Stream size : 16.2 KiB (0%)
Title : Hungarian
Language : Hungarian
Default : No
Forced : No

Text #15
ID : 17
Format : UTF-8
Codec ID : S_TEXT/UTF8
Codec ID/Info : UTF-8 Plain Text
Duration : 1 h 55 min
Bit rate : 20 b/s
Count of elements : 668
Stream size : 17.1 KiB (0%)
Title : Indonesian
Language : Indonesian
Default : No
Forced : No

Text #16
ID : 18
Format : UTF-8
Codec ID : S_TEXT/UTF8
Codec ID/Info : UTF-8 Plain Text
Duration : 1 h 55 min
Bit rate : 19 b/s
Count of elements : 664
Stream size : 16.8 KiB (0%)
Title : Italian
Language : Italian
Default : No
Forced : No

Text #17
ID : 19
Format : UTF-8
Codec ID : S_TEXT/UTF8
Codec ID/Info : UTF-8 Plain Text
Duration : 1 h 55 min
Bit rate : 20 b/s
Count of elements : 689
Stream size : 17.1 KiB (0%)
Title : Japanese
Language : Japanese
Default : No
Forced : No

Text #18
ID : 20
Format : UTF-8
Codec ID : S_TEXT/UTF8
Codec ID/Info : UTF-8 Plain Text
Duration : 1 h 55 min
Bit rate : 23 b/s
Count of elements : 679
Stream size : 20.0 KiB (0%)
Title : Korean
Language : Korean
Default : No
Forced : No

Text #19
ID : 21
Format : UTF-8
Codec ID : S_TEXT/UTF8
Codec ID/Info : UTF-8 Plain Text
Duration : 1 h 55 min
Bit rate : 18 b/s
Count of elements : 655
Stream size : 16.0 KiB (0%)
Title : Norwegian Bokmal
Language : Norwegian Bokmal
Default : No
Forced : No

Text #20
ID : 22
Format : UTF-8
Codec ID : S_TEXT/UTF8
Codec ID/Info : UTF-8 Plain Text
Duration : 1 h 55 min
Bit rate : 17 b/s
Count of elements : 668
Stream size : 14.5 KiB (0%)
Title : Polish
Language : Polish
Default : No
Forced : No

Text #21
ID : 23
Format : UTF-8
Codec ID : S_TEXT/UTF8
Codec ID/Info : UTF-8 Plain Text
Duration : 1 h 55 min
Bit rate : 20 b/s
Count of elements : 691
Stream size : 17.0 KiB (0%)
Title : Portuguese
Language : Portuguese
Default : No
Forced : No

Text #22
ID : 24
Format : UTF-8
Codec ID : S_TEXT/UTF8
Codec ID/Info : UTF-8 Plain Text
Duration : 1 h 55 min
Bit rate : 19 b/s
Count of elements : 672
Stream size : 16.4 KiB (0%)
Title : Brazilian Portuguese
Language : Portuguese
Default : No
Forced : No

Text #23
ID : 25
Format : UTF-8
Codec ID : S_TEXT/UTF8
Codec ID/Info : UTF-8 Plain Text
Duration : 1 h 55 min
Bit rate : 23 b/s
Count of elements : 687
Stream size : 19.6 KiB (0%)
Title : Romanian
Language : Romanian
Default : No
Forced : No

Text #24
ID : 26
Format : UTF-8
Codec ID : S_TEXT/UTF8
Codec ID/Info : UTF-8 Plain Text
Duration : 1 h 55 min
Bit rate : 31 b/s
Count of elements : 675
Stream size : 26.3 KiB (0%)
Title : Russian
Language : Russian
Default : No
Forced : No

Text #25
ID : 27
Format : UTF-8
Codec ID : S_TEXT/UTF8
Codec ID/Info : UTF-8 Plain Text
Duration : 1 h 55 min
Bit rate : 19 b/s
Count of elements : 697
Stream size : 16.6 KiB (0%)
Title : Spanish
Language : Spanish
Default : No
Forced : No

Text #26
ID : 28
Format : UTF-8
Codec ID : S_TEXT/UTF8
Codec ID/Info : UTF-8 Plain Text
Duration : 1 h 55 min
Bit rate : 20 b/s
Count of elements : 722
Stream size : 17.1 KiB (0%)
Title : European Spanish
Language : Spanish
Default : No
Forced : No

Text #27
ID : 29
Format : UTF-8
Codec ID : S_TEXT/UTF8
Codec ID/Info : UTF-8 Plain Text
Duration : 1 h 55 min
Bit rate : 20 b/s
Count of elements : 620
Stream size : 16.9 KiB (0%)
Title : Swedish
Language : Swedish
Default : No
Forced : No

Text #28
ID : 30
Format : UTF-8
Codec ID : S_TEXT/UTF8
Codec ID/Info : UTF-8 Plain Text
Duration : 1 h 55 min
Bit rate : 51 b/s
Count of elements : 681
Stream size : 43.3 KiB (0%)
Title : Thai
Language : Thai
Default : No
Forced : No

Text #29
ID : 31
Format : UTF-8
Codec ID : S_TEXT/UTF8
Codec ID/Info : UTF-8 Plain Text
Duration : 1 h 55 min
Bit rate : 19 b/s
Count of elements : 661
Stream size : 16.7 KiB (0%)
Title : Turkish
Language : Turkish
Default : No
Forced : No

Text #30
ID : 32
Format : UTF-8
Codec ID : S_TEXT/UTF8
Codec ID/Info : UTF-8 Plain Text
Duration : 1 h 55 min
Bit rate : 28 b/s
Count of elements : 674
Stream size : 24.3 KiB (0%)
Title : Vietnamese
Language : Vietnamese
Default : No
Forced : No





Extraction (2020)


Extraction (2020)


Extraction (2020)


Extraction (2020)


Extraction (2020)