Helstrom S01E01

TV Series
Helstrom S01E01

Helstrom S01E01
WEB-DL | MKV | 3840x2160 | English | H265 @ 12198 kbps | E-AC-3 @ 256 kbps | 55 min 49 s | 4.96 GiB
Subtitles: Español, English
Genre: Drama


Daimon and Ana Helstrom are the son and daughter of a mysterious and powerful serial killer. The siblings have a complicated dynamic as they track down the terrorizing worst of humanity — each with their attitude and skills.

e1797b51fee22a421ef318448f2daa5e.mkv (5.0 GB)



General
Unique ID : 39924132625915351907994196494432901023 (0x1E091BB67480FA64075CB399DF48979F)
Complete name : ./e1797b51fee22a421ef318448f2daa5e.mkv
Format : Matroska
Format version : Version 4 / Version 2
File size : 4.96 GiB
Duration : 55 min 49 s
Overall bit rate : 12.7 Mb/s
Writing application : mkvmerge v21.0.0 ('Tardigrades Will Inherit The Earth') 64-bit
Writing library : libebml v1.3.5 + libmatroska v1.4.8

Video
ID : 1
Format : HEVC
Format/Info : High Efficiency Video Coding
Format profile : Main 10@L5.1@Main
Codec ID : V_MPEGH/ISO/HEVC
Duration : 55 min 49 s
Bit rate : 12.2 Mb/s
Width : 3 840 pixels
Height : 2 160 pixels
Display aspect ratio : 16:9
Frame rate mode : Constant
Frame rate : 23.976 (24000/1001) FPS
Color space : YUV
Chroma subsampling : 4:2:0
Bit depth : 10 bits
Bits/(Pixel*Frame) : 0.061
Stream size : 4.76 GiB (96%)
Default : Yes
Forced : No
Statistics Tags Issue : mkvmerge v21.0.0 ('Tardigrades Will Inherit The Earth') 64-bit 2020-10-16 04:18:59 / mkvmerge v21.0.0 ('Tardigrades Will Inherit The Earth') 64-bit
FromStats_BitRate : 12449876
FromStats_Duration : 00:55:49.471000000
FromStats_FrameCount : 80307
FromStats_StreamSize : 5212562635

Audio
ID : 2
Format : E-AC-3
Format/Info : Enhanced Audio Coding 3
Format settings, Endianness : Big
Codec ID : A_EAC3
Duration : 55 min 49 s
Bit rate mode : Constant
Bit rate : 256 kb/s
Channel(s) : 6 channels
Channel positions : Front: L C R, Side: L R, LFE
Sampling rate : 48.0 kHz
Frame rate : 187.500 FPS (256 SPF)
Compression mode : Lossy
Stream size : 102 MiB (2%)
Language : English
Service kind : Complete Main
Default : Yes
Forced : No
Statistics Tags Issue : mkvmerge v21.0.0 ('Tardigrades Will Inherit The Earth') 64-bit 2020-10-16 04:18:59 / mkvmerge v21.0.0 ('Tardigrades Will Inherit The Earth') 64-bit
FromStats_BitRate : 256000
FromStats_Duration : 00:55:49.568000000
FromStats_FrameCount : 104674
FromStats_StreamSize : 107186176

Text #1
ID : 3
Format : UTF-8
Codec ID : S_TEXT/UTF8
Codec ID/Info : UTF-8 Plain Text
Title : SDH
Language : English
Default : No
Forced : No
Statistics Tags Issue : mkvmerge v21.0.0 ('Tardigrades Will Inherit The Earth') 64-bit 2020-10-16 04:18:59 / mkvmerge v21.0.0 ('Tardigrades Will Inherit The Earth') 64-bit
FromStats_BitRate : 61
FromStats_Duration : 00:55:36.503000000
FromStats_FrameCount : 810
FromStats_StreamSize : 25479

Text #2
ID : 4
Format : UTF-8
Codec ID : S_TEXT/UTF8
Codec ID/Info : UTF-8 Plain Text
Language : Spanish
Default : No
Forced : No
Statistics Tags Issue : mkvmerge v21.0.0 ('Tardigrades Will Inherit The Earth') 64-bit 2020-10-16 04:18:59 / mkvmerge v21.0.0 ('Tardigrades Will Inherit The Earth') 64-bit
FromStats_BitRate : 62
FromStats_Duration : 00:55:01.510000000
FromStats_FrameCount : 788
FromStats_StreamSize : 25772

Menu
00:17:30.000 : en:Chapter 01
00:27:42.005 : en:Chapter 02
00:37:07.008 : en:Chapter 03
00:50:02.007 : en:Chapter 04





Helstrom S01E01


Helstrom S01E01


Helstrom S01E01


Helstrom S01E01


Helstrom S01E01