Helstrom S01E02

TV Series
Helstrom S01E02

Helstrom S01E02
WEB-DL | MKV | 3840x2160 | English | H265 @ 14362 kbps | E-AC-3 @ 256 kbps | 48 min 4 s | 5.01 GiB
Subtitles: Español, English
Genre: Drama


Daimon and Ana Helstrom are the son and daughter of a mysterious and powerful serial killer. The siblings have a complicated dynamic as they track down the terrorizing worst of humanity — each with their attitude and skills.

5fb3699cea3b48790e22f1509c62dcf6.mkv (5.0 GB)



General
Unique ID : 82501391177149798401790296557485704187 (0x3E1130A20417B9233E5EFFA22F8A43FB)
Complete name : ./5fb3699cea3b48790e22f1509c62dcf6.mkv
Format : Matroska
Format version : Version 4 / Version 2
File size : 5.01 GiB
Duration : 48 min 4 s
Overall bit rate : 14.9 Mb/s
Writing application : mkvmerge v21.0.0 ('Tardigrades Will Inherit The Earth') 64-bit
Writing library : libebml v1.3.5 + libmatroska v1.4.8

Video
ID : 1
Format : HEVC
Format/Info : High Efficiency Video Coding
Format profile : Main 10@L5.1@Main
Codec ID : V_MPEGH/ISO/HEVC
Duration : 48 min 5 s
Bit rate : 14.4 Mb/s
Width : 3 840 pixels
Height : 2 160 pixels
Display aspect ratio : 16:9
Frame rate mode : Constant
Frame rate : 23.976 (24000/1001) FPS
Color space : YUV
Chroma subsampling : 4:2:0
Bit depth : 10 bits
Bits/(Pixel*Frame) : 0.072
Stream size : 4.82 GiB (96%)
Default : Yes
Forced : No
Statistics Tags Issue : mkvmerge v21.0.0 ('Tardigrades Will Inherit The Earth') 64-bit 2020-10-16 04:23:09 / mkvmerge v21.0.0 ('Tardigrades Will Inherit The Earth') 64-bit
FromStats_BitRate : 14657751
FromStats_Duration : 00:48:04.882000000
FromStats_FrameCount : 69168
FromStats_StreamSize : 5285735420

Audio
ID : 2
Format : E-AC-3
Format/Info : Enhanced Audio Coding 3
Format settings, Endianness : Big
Codec ID : A_EAC3
Duration : 48 min 4 s
Bit rate mode : Constant
Bit rate : 256 kb/s
Channel(s) : 6 channels
Channel positions : Front: L C R, Side: L R, LFE
Sampling rate : 48.0 kHz
Frame rate : 187.500 FPS (256 SPF)
Compression mode : Lossy
Stream size : 88.0 MiB (2%)
Language : English
Service kind : Complete Main
Default : Yes
Forced : No
Statistics Tags Issue : mkvmerge v21.0.0 ('Tardigrades Will Inherit The Earth') 64-bit 2020-10-16 04:23:09 / mkvmerge v21.0.0 ('Tardigrades Will Inherit The Earth') 64-bit
FromStats_BitRate : 256000
FromStats_Duration : 00:48:04.992000000
FromStats_FrameCount : 90156
FromStats_StreamSize : 92319744

Text #1
ID : 3
Format : UTF-8
Codec ID : S_TEXT/UTF8
Codec ID/Info : UTF-8 Plain Text
Title : SDH
Language : English
Default : No
Forced : No
Statistics Tags Issue : mkvmerge v21.0.0 ('Tardigrades Will Inherit The Earth') 64-bit 2020-10-16 04:23:09 / mkvmerge v21.0.0 ('Tardigrades Will Inherit The Earth') 64-bit
FromStats_BitRate : 68
FromStats_Duration : 00:47:48.451000000
FromStats_FrameCount : 810
FromStats_StreamSize : 24498

Text #2
ID : 4
Format : UTF-8
Codec ID : S_TEXT/UTF8
Codec ID/Info : UTF-8 Plain Text
Language : Spanish
Default : No
Forced : No
Statistics Tags Issue : mkvmerge v21.0.0 ('Tardigrades Will Inherit The Earth') 64-bit 2020-10-16 04:23:09 / mkvmerge v21.0.0 ('Tardigrades Will Inherit The Earth') 64-bit
FromStats_BitRate : 71
FromStats_Duration : 00:47:11.249000000
FromStats_FrameCount : 768
FromStats_StreamSize : 25198

Menu
00:02:34.023 : en:Chapter 01
00:13:35.005 : en:Chapter 02
00:27:56.000 : en:Chapter 03
00:38:15.022 : en:Chapter 04
00:47:08.009 : en:Credits





Helstrom S01E02


Helstrom S01E02


Helstrom S01E02


Helstrom S01E02


Helstrom S01E02