Helstrom S01E03

TV Series
Helstrom S01E03

Helstrom S01E03
WEB-DL | MKV | 3840x2160 | English | H265 @ 14512 kbps | E-AC-3 @ 256 kbps | 44 min 57 s | 4.73 GiB
Subtitles: Español, English
Genre: Drama


Daimon and Ana Helstrom are the son and daughter of a mysterious and powerful serial killer. The siblings have a complicated dynamic as they track down the terrorizing worst of humanity — each with their attitude and skills.

9f1202b8ac319effecaea5610917e059.mkv (4.7 GB)



General
Unique ID : 238089470940656018690597349412092944664 (0xB31E5D391E0E20B411DC323EDD5EA118)
Complete name : ./9f1202b8ac319effecaea5610917e059.mkv
Format : Matroska
Format version : Version 4 / Version 2
File size : 4.73 GiB
Duration : 44 min 57 s
Overall bit rate : 15.1 Mb/s
Writing application : mkvmerge v21.0.0 ('Tardigrades Will Inherit The Earth') 64-bit
Writing library : libebml v1.3.5 + libmatroska v1.4.8

Video
ID : 1
Format : HEVC
Format/Info : High Efficiency Video Coding
Format profile : Main 10@L5.1@Main
Codec ID : V_MPEGH/ISO/HEVC
Duration : 44 min 57 s
Bit rate : 14.5 Mb/s
Width : 3 840 pixels
Height : 2 160 pixels
Display aspect ratio : 16:9
Frame rate mode : Constant
Frame rate : 23.976 (24000/1001) FPS
Color space : YUV
Chroma subsampling : 4:2:0
Bit depth : 10 bits
Bits/(Pixel*Frame) : 0.073
Stream size : 4.56 GiB (96%)
Default : Yes
Forced : No
Statistics Tags Issue : mkvmerge v21.0.0 ('Tardigrades Will Inherit The Earth') 64-bit 2020-10-16 04:28:26 / mkvmerge v21.0.0 ('Tardigrades Will Inherit The Earth') 64-bit
FromStats_BitRate : 14810263
FromStats_Duration : 00:44:56.945000000
FromStats_FrameCount : 64662
FromStats_StreamSize : 4992808183

Audio
ID : 2
Format : E-AC-3
Format/Info : Enhanced Audio Coding 3
Format settings, Endianness : Big
Codec ID : A_EAC3
Duration : 44 min 57 s
Bit rate mode : Constant
Bit rate : 256 kb/s
Channel(s) : 6 channels
Channel positions : Front: L C R, Side: L R, LFE
Sampling rate : 48.0 kHz
Frame rate : 187.500 FPS (256 SPF)
Compression mode : Lossy
Stream size : 82.3 MiB (2%)
Language : English
Service kind : Complete Main
Default : Yes
Forced : No
Statistics Tags Issue : mkvmerge v21.0.0 ('Tardigrades Will Inherit The Earth') 64-bit 2020-10-16 04:28:26 / mkvmerge v21.0.0 ('Tardigrades Will Inherit The Earth') 64-bit
FromStats_BitRate : 256000
FromStats_Duration : 00:44:57.056000000
FromStats_FrameCount : 84283
FromStats_StreamSize : 86305792

Text #1
ID : 3
Format : UTF-8
Codec ID : S_TEXT/UTF8
Codec ID/Info : UTF-8 Plain Text
Title : SDH
Language : English
Default : No
Forced : No
Statistics Tags Issue : mkvmerge v21.0.0 ('Tardigrades Will Inherit The Earth') 64-bit 2020-10-16 04:28:26 / mkvmerge v21.0.0 ('Tardigrades Will Inherit The Earth') 64-bit
FromStats_BitRate : 68
FromStats_Duration : 00:44:41.223000000
FromStats_FrameCount : 738
FromStats_StreamSize : 22947

Text #2
ID : 4
Format : UTF-8
Codec ID : S_TEXT/UTF8
Codec ID/Info : UTF-8 Plain Text
Language : Spanish
Default : No
Forced : No
Statistics Tags Issue : mkvmerge v21.0.0 ('Tardigrades Will Inherit The Earth') 64-bit 2020-10-16 04:28:26 / mkvmerge v21.0.0 ('Tardigrades Will Inherit The Earth') 64-bit
FromStats_BitRate : 70
FromStats_Duration : 00:44:02.393000000
FromStats_FrameCount : 689
FromStats_StreamSize : 23358

Menu
00:03:06.011 : en:Chapter 01
00:12:16.000 : en:Chapter 02
00:23:55.006 : en:Chapter 03
00:35:39.001 : en:Chapter 04
00:44:00.011 : en:Credits





Helstrom S01E03


Helstrom S01E03


Helstrom S01E03


Helstrom S01E03


Helstrom S01E03