Helstrom S01E04

TV Series
Helstrom S01E04

Helstrom S01E04
WEB-DL | MKV | 1920x1080 | English | H264 @ 2714 kbps | E-AC-3 @ 256 kbps | 52 min 4 s | 1.08 GiB
Subtitles: English
Genre: Drama


Daimon and Ana Helstrom are the son and daughter of a mysterious and powerful serial killer. The siblings have a complicated dynamic as they track down the terrorizing worst of humanity — each with their attitude and skills.

027e64310473be97f76da3bf66015e01.mkv (1.1 GB)



General
Unique ID : 272571354936897043785293795130987659350 (0xCD0F555CAF773880E2452BCA02C64056)
Complete name : ./027e64310473be97f76da3bf66015e01.mkv
Format : Matroska
Format version : Version 4 / Version 2
File size : 1.08 GiB
Duration : 52 min 4 s
Overall bit rate : 2 972 kb/s
Encoded date : UTC 2020-10-16 21:40:34
Writing application : mkvmerge v42.0.0 ('Overtime') 64-bit
Writing library : libebml v1.3.10 + libmatroska v1.5.2

Video
ID : 1
Format : AVC
Format/Info : Advanced Video Codec
Format profile : High@L4
Format settings : CABAC / 4 Ref Frames
Format settings, CABAC : Yes
Format settings, RefFrames : 4 frames
Codec ID : V_MPEG4/ISO/AVC
Duration : 52 min 4 s
Bit rate : 2 714 kb/s
Width : 1 920 pixels
Height : 1 080 pixels
Display aspect ratio : 16:9
Frame rate mode : Constant
Frame rate : 23.976 (24000/1001) FPS
Color space : YUV
Chroma subsampling : 4:2:0
Bit depth : 8 bits
Scan type : Progressive
Bits/(Pixel*Frame) : 0.055
Stream size : 1 011 MiB (91%)
Default : Yes
Forced : No

Audio
ID : 2
Format : E-AC-3
Format/Info : Enhanced Audio Coding 3
Format settings, Endianness : Big
Codec ID : A_EAC3
Duration : 52 min 4 s
Bit rate mode : Constant
Bit rate : 256 kb/s
Channel(s) : 6 channels
Channel positions : Front: L C R, Side: L R, LFE
Sampling rate : 48.0 kHz
Frame rate : 187.500 FPS (256 SPF)
Compression mode : Lossy
Stream size : 95.3 MiB (9%)
Language : English
Service kind : Complete Main
Default : Yes
Forced : No

Text
ID : 3
Format : UTF-8
Codec ID : S_TEXT/UTF8
Codec ID/Info : UTF-8 Plain Text
Duration : 51 min 45 s
Bit rate : 60 b/s
Count of elements : 795
Stream size : 23.0 KiB (0%)
Language : English
Default : No
Forced : No





Helstrom S01E04


Helstrom S01E04


Helstrom S01E04


Helstrom S01E04


Helstrom S01E04