Helstrom S01E05

TV Series
Helstrom S01E05

Helstrom S01E05
WEB-DL | MKV | 3840x2160 | English | H265 @ 14902 kbps | E-AC-3 @ 256 kbps | 45 min 20 s | 4.90 GiB
Subtitles: Español, English
Genre: Drama


Daimon and Ana Helstrom are the son and daughter of a mysterious and powerful serial killer. The siblings have a complicated dynamic as they track down the terrorizing worst of humanity — each with their attitude and skills.

00189d2deda89d0c5efc647af774cb3c.mkv (4.9 GB)



General
Unique ID : 174634818022496720166310937206002457831 (0x8361714A0DA75AA775B9BC86DC129CE7)
Complete name : ./00189d2deda89d0c5efc647af774cb3c.mkv
Format : Matroska
Format version : Version 4 / Version 2
File size : 4.90 GiB
Duration : 45 min 20 s
Overall bit rate : 15.5 Mb/s
Writing application : mkvmerge v21.0.0 ('Tardigrades Will Inherit The Earth') 64-bit
Writing library : libebml v1.3.5 + libmatroska v1.4.8

Video
ID : 1
Format : HEVC
Format/Info : High Efficiency Video Coding
Format profile : Main 10@L5.1@Main
Codec ID : V_MPEGH/ISO/HEVC
Duration : 45 min 20 s
Bit rate : 14.9 Mb/s
Width : 3 840 pixels
Height : 2 160 pixels
Display aspect ratio : 16:9
Frame rate mode : Constant
Frame rate : 23.976 (24000/1001) FPS
Color space : YUV
Chroma subsampling : 4:2:0
Bit depth : 10 bits
Bits/(Pixel*Frame) : 0.075
Stream size : 4.72 GiB (96%)
Default : Yes
Forced : No
Statistics Tags Issue : mkvmerge v21.0.0 ('Tardigrades Will Inherit The Earth') 64-bit 2020-10-16 04:38:56 / mkvmerge v21.0.0 ('Tardigrades Will Inherit The Earth') 64-bit
FromStats_BitRate : 15209003
FromStats_Duration : 00:45:20.510000000
FromStats_FrameCount : 65227
FromStats_StreamSize : 5172030795

Audio
ID : 2
Format : E-AC-3
Format/Info : Enhanced Audio Coding 3
Format settings, Endianness : Big
Codec ID : A_EAC3
Duration : 45 min 20 s
Bit rate mode : Constant
Bit rate : 256 kb/s
Channel(s) : 6 channels
Channel positions : Front: L C R, Side: L R, LFE
Sampling rate : 48.0 kHz
Frame rate : 187.500 FPS (256 SPF)
Compression mode : Lossy
Stream size : 83.0 MiB (2%)
Language : English
Service kind : Complete Main
Default : Yes
Forced : No
Statistics Tags Issue : mkvmerge v21.0.0 ('Tardigrades Will Inherit The Earth') 64-bit 2020-10-16 04:38:56 / mkvmerge v21.0.0 ('Tardigrades Will Inherit The Earth') 64-bit
FromStats_BitRate : 256000
FromStats_Duration : 00:45:20.608000000
FromStats_FrameCount : 85019
FromStats_StreamSize : 87059456

Text #1
ID : 3
Format : UTF-8
Codec ID : S_TEXT/UTF8
Codec ID/Info : UTF-8 Plain Text
Title : SDH
Language : English
Default : No
Forced : No
Statistics Tags Issue : mkvmerge v21.0.0 ('Tardigrades Will Inherit The Earth') 64-bit 2020-10-16 04:38:56 / mkvmerge v21.0.0 ('Tardigrades Will Inherit The Earth') 64-bit
FromStats_BitRate : 64
FromStats_Duration : 00:45:06.957000000
FromStats_FrameCount : 773
FromStats_StreamSize : 21988

Text #2
ID : 4
Format : UTF-8
Codec ID : S_TEXT/UTF8
Codec ID/Info : UTF-8 Plain Text
Language : Spanish
Default : No
Forced : No
Statistics Tags Issue : mkvmerge v21.0.0 ('Tardigrades Will Inherit The Earth') 64-bit 2020-10-16 04:38:56 / mkvmerge v21.0.0 ('Tardigrades Will Inherit The Earth') 64-bit
FromStats_BitRate : 68
FromStats_Duration : 00:44:28.961000000
FromStats_FrameCount : 768
FromStats_StreamSize : 22957

Menu
00:05:30.009 : en:Chapter 01
00:15:10.000 : en:Chapter 02
00:25:06.009 : en:Chapter 03
00:37:42.001 : en:Chapter 04
00:44:24.000 : en:Credits





Helstrom S01E05


Helstrom S01E05


Helstrom S01E05


Helstrom S01E05


Helstrom S01E05