Helstrom S01E06

TV Series
Helstrom S01E06

Helstrom S01E06
WEB-DL | MKV | 3840x2160 | English | H265 @ 13852 kbps | E-AC-3 @ 256 kbps | 47 min 36 s | 4.79 GiB
Subtitles: Español, English
Genre: Drama


Daimon and Ana Helstrom are the son and daughter of a mysterious and powerful serial killer. The siblings have a complicated dynamic as they track down the terrorizing worst of humanity — each with their attitude and skills.

c56ad2a5450a58867ce7de2b7f64fe6f.mkv (4.8 GB)



General
Unique ID : 223759464272463199631122807092540641045 (0xA85681589A996BA446FD4AAEBBA48F15)
Complete name : ./c56ad2a5450a58867ce7de2b7f64fe6f.mkv
Format : Matroska
Format version : Version 4 / Version 2
File size : 4.79 GiB
Duration : 47 min 36 s
Overall bit rate : 14.4 Mb/s
Writing application : mkvmerge v21.0.0 ('Tardigrades Will Inherit The Earth') 64-bit
Writing library : libebml v1.3.5 + libmatroska v1.4.8

Video
ID : 1
Format : HEVC
Format/Info : High Efficiency Video Coding
Format profile : Main 10@L5.1@Main
Codec ID : V_MPEGH/ISO/HEVC
Duration : 47 min 36 s
Bit rate : 13.9 Mb/s
Width : 3 840 pixels
Height : 2 160 pixels
Display aspect ratio : 16:9
Frame rate mode : Constant
Frame rate : 23.976 (24000/1001) FPS
Color space : YUV
Chroma subsampling : 4:2:0
Bit depth : 10 bits
Bits/(Pixel*Frame) : 0.070
Stream size : 4.61 GiB (96%)
Default : Yes
Forced : No
Statistics Tags Issue : mkvmerge v21.0.0 ('Tardigrades Will Inherit The Earth') 64-bit 2020-10-16 04:44:57 / mkvmerge v21.0.0 ('Tardigrades Will Inherit The Earth') 64-bit
FromStats_BitRate : 14137170
FromStats_Duration : 00:47:36.646000000
FromStats_FrameCount : 68491
FromStats_StreamSize : 5048111509

Audio
ID : 2
Format : E-AC-3
Format/Info : Enhanced Audio Coding 3
Format settings, Endianness : Big
Codec ID : A_EAC3
Duration : 47 min 36 s
Bit rate mode : Constant
Bit rate : 256 kb/s
Channel(s) : 6 channels
Channel positions : Front: L C R, Side: L R, LFE
Sampling rate : 48.0 kHz
Frame rate : 187.500 FPS (256 SPF)
Compression mode : Lossy
Stream size : 87.2 MiB (2%)
Language : English
Service kind : Complete Main
Default : Yes
Forced : No
Statistics Tags Issue : mkvmerge v21.0.0 ('Tardigrades Will Inherit The Earth') 64-bit 2020-10-16 04:44:57 / mkvmerge v21.0.0 ('Tardigrades Will Inherit The Earth') 64-bit
FromStats_BitRate : 256000
FromStats_Duration : 00:47:36.768000000
FromStats_FrameCount : 89274
FromStats_StreamSize : 91416576

Text #1
ID : 3
Format : UTF-8
Codec ID : S_TEXT/UTF8
Codec ID/Info : UTF-8 Plain Text
Title : SDH
Language : English
Default : No
Forced : No
Statistics Tags Issue : mkvmerge v21.0.0 ('Tardigrades Will Inherit The Earth') 64-bit 2020-10-16 04:44:57 / mkvmerge v21.0.0 ('Tardigrades Will Inherit The Earth') 64-bit
FromStats_BitRate : 58
FromStats_Duration : 00:47:12.124000000
FromStats_FrameCount : 702
FromStats_StreamSize : 20656

Text #2
ID : 4
Format : UTF-8
Codec ID : S_TEXT/UTF8
Codec ID/Info : UTF-8 Plain Text
Language : Spanish
Default : No
Forced : No
Statistics Tags Issue : mkvmerge v21.0.0 ('Tardigrades Will Inherit The Earth') 64-bit 2020-10-16 04:44:57 / mkvmerge v21.0.0 ('Tardigrades Will Inherit The Earth') 64-bit
FromStats_BitRate : 59
FromStats_Duration : 00:47:25.429000000
FromStats_FrameCount : 672
FromStats_StreamSize : 21079

Menu
00:03:41.019 : en:Chapter 01
00:21:42.014 : en:Chapter 02
00:29:59.009 : en:Chapter 03
00:36:58.020 : en:Chapter 04
00:46:39.015 : en:Credits





Helstrom S01E06


Helstrom S01E06


Helstrom S01E06


Helstrom S01E06


Helstrom S01E06