Helstrom S01E07

TV Series
Helstrom S01E07

Helstrom S01E07
WEB-DL | MKV | 3840x2160 | English | H265 @ 14780 kbps | E-AC-3 @ 256 kbps | 52 min 0 s | 5.57 GiB
Subtitles: Español, English
Genre: Drama


Daimon and Ana Helstrom are the son and daughter of a mysterious and powerful serial killer. The siblings have a complicated dynamic as they track down the terrorizing worst of humanity — each with their attitude and skills.

abda4a644cd7704dab40e1a240d63c74.mkv (5.6 GB)



General
Unique ID : 199570718540362140405788083210225477080 (0x9623EC1AEF08A1E83238D12131A465D8)
Complete name : ./abda4a644cd7704dab40e1a240d63c74.mkv
Format : Matroska
Format version : Version 4 / Version 2
File size : 5.57 GiB
Duration : 52 min 0 s
Overall bit rate : 15.3 Mb/s
Writing application : mkvmerge v21.0.0 ('Tardigrades Will Inherit The Earth') 64-bit
Writing library : libebml v1.3.5 + libmatroska v1.4.8

Video
ID : 1
Format : HEVC
Format/Info : High Efficiency Video Coding
Format profile : Main 10@L5.1@Main
Codec ID : V_MPEGH/ISO/HEVC
Duration : 52 min 0 s
Bit rate : 14.8 Mb/s
Width : 3 840 pixels
Height : 2 160 pixels
Display aspect ratio : 16:9
Frame rate mode : Constant
Frame rate : 23.976 (24000/1001) FPS
Color space : YUV
Chroma subsampling : 4:2:0
Bit depth : 10 bits
Bits/(Pixel*Frame) : 0.074
Stream size : 5.37 GiB (96%)
Default : Yes
Forced : No
Statistics Tags Issue : mkvmerge v21.0.0 ('Tardigrades Will Inherit The Earth') 64-bit 2020-10-16 04:33:35 / mkvmerge v21.0.0 ('Tardigrades Will Inherit The Earth') 64-bit
FromStats_BitRate : 15084179
FromStats_Duration : 00:52:00.201000000
FromStats_FrameCount : 74810
FromStats_StreamSize : 5883209103

Audio
ID : 2
Format : E-AC-3
Format/Info : Enhanced Audio Coding 3
Format settings, Endianness : Big
Codec ID : A_EAC3
Duration : 52 min 0 s
Bit rate mode : Constant
Bit rate : 256 kb/s
Channel(s) : 6 channels
Channel positions : Front: L C R, Side: L R, LFE
Sampling rate : 48.0 kHz
Frame rate : 187.500 FPS (256 SPF)
Compression mode : Lossy
Stream size : 95.2 MiB (2%)
Language : English
Service kind : Complete Main
Default : Yes
Forced : No
Statistics Tags Issue : mkvmerge v21.0.0 ('Tardigrades Will Inherit The Earth') 64-bit 2020-10-16 04:33:35 / mkvmerge v21.0.0 ('Tardigrades Will Inherit The Earth') 64-bit
FromStats_BitRate : 256000
FromStats_Duration : 00:52:00.320000000
FromStats_FrameCount : 97510
FromStats_StreamSize : 99850240

Text #1
ID : 3
Format : UTF-8
Codec ID : S_TEXT/UTF8
Codec ID/Info : UTF-8 Plain Text
Title : SDH
Language : English
Default : No
Forced : No
Statistics Tags Issue : mkvmerge v21.0.0 ('Tardigrades Will Inherit The Earth') 64-bit 2020-10-16 04:33:35 / mkvmerge v21.0.0 ('Tardigrades Will Inherit The Earth') 64-bit
FromStats_BitRate : 65
FromStats_Duration : 00:51:08.318000000
FromStats_FrameCount : 773
FromStats_StreamSize : 25083

Text #2
ID : 4
Format : UTF-8
Codec ID : S_TEXT/UTF8
Codec ID/Info : UTF-8 Plain Text
Language : Spanish
Default : No
Forced : No
Statistics Tags Issue : mkvmerge v21.0.0 ('Tardigrades Will Inherit The Earth') 64-bit 2020-10-16 04:33:35 / mkvmerge v21.0.0 ('Tardigrades Will Inherit The Earth') 64-bit
FromStats_BitRate : 68
FromStats_Duration : 00:51:08.318000000
FromStats_FrameCount : 767
FromStats_StreamSize : 26206

Menu
00:03:37.015 : en:Chapter 01
00:13:15.016 : en:Chapter 02
00:27:57.007 : en:Chapter 03
00:35:23.004 : en:Chapter 04
00:51:03.004 : en:Credits





Helstrom S01E07


Helstrom S01E07


Helstrom S01E07


Helstrom S01E07


Helstrom S01E07