Helstrom S01E08

TV Series
Helstrom S01E08

Helstrom S01E08
WEB-DL | MKV | 3840x2160 | English | H265 @ 13988 kbps | E-AC-3 @ 256 kbps | 50 min 17 s | 5.10 GiB
Subtitles: Español, English
Genre: Drama


Daimon and Ana Helstrom are the son and daughter of a mysterious and powerful serial killer. The siblings have a complicated dynamic as they track down the terrorizing worst of humanity — each with their attitude and skills.

5e708206c26e9ee985f8dbe9815c647b.mkv (5.1 GB)



General
Unique ID : 62711907803990296819859480505866042836 (0x2F2DDFC5BBF9B0B92560F4186770BDD4)
Complete name : ./5e708206c26e9ee985f8dbe9815c647b.mkv
Format : Matroska
Format version : Version 4 / Version 2
File size : 5.10 GiB
Duration : 50 min 17 s
Overall bit rate : 14.5 Mb/s
Writing application : mkvmerge v21.0.0 ('Tardigrades Will Inherit The Earth') 64-bit
Writing library : libebml v1.3.5 + libmatroska v1.4.8

Video
ID : 1
Format : HEVC
Format/Info : High Efficiency Video Coding
Format profile : Main 10@L5.1@Main
Codec ID : V_MPEGH/ISO/HEVC
Duration : 50 min 17 s
Bit rate : 14.0 Mb/s
Width : 3 840 pixels
Height : 2 160 pixels
Display aspect ratio : 16:9
Frame rate mode : Constant
Frame rate : 23.976 (24000/1001) FPS
Color space : YUV
Chroma subsampling : 4:2:0
Bit depth : 10 bits
Bits/(Pixel*Frame) : 0.070
Stream size : 4.91 GiB (96%)
Default : Yes
Forced : No
Statistics Tags Issue : mkvmerge v21.0.0 ('Tardigrades Will Inherit The Earth') 64-bit 2020-10-16 04:39:15 / mkvmerge v21.0.0 ('Tardigrades Will Inherit The Earth') 64-bit
FromStats_BitRate : 14275827
FromStats_Duration : 00:50:17.014000000
FromStats_FrameCount : 72336
FromStats_StreamSize : 5383796510

Audio
ID : 2
Format : E-AC-3
Format/Info : Enhanced Audio Coding 3
Format settings, Endianness : Big
Codec ID : A_EAC3
Duration : 50 min 17 s
Bit rate mode : Constant
Bit rate : 256 kb/s
Channel(s) : 6 channels
Channel positions : Front: L C R, Side: L R, LFE
Sampling rate : 48.0 kHz
Frame rate : 187.500 FPS (256 SPF)
Compression mode : Lossy
Stream size : 92.1 MiB (2%)
Language : English
Service kind : Complete Main
Default : Yes
Forced : No
Statistics Tags Issue : mkvmerge v21.0.0 ('Tardigrades Will Inherit The Earth') 64-bit 2020-10-16 04:39:15 / mkvmerge v21.0.0 ('Tardigrades Will Inherit The Earth') 64-bit
FromStats_BitRate : 256000
FromStats_Duration : 00:50:17.120000000
FromStats_FrameCount : 94285
FromStats_StreamSize : 96547840

Text #1
ID : 3
Format : UTF-8
Codec ID : S_TEXT/UTF8
Codec ID/Info : UTF-8 Plain Text
Title : SDH
Language : English
Default : No
Forced : No
Statistics Tags Issue : mkvmerge v21.0.0 ('Tardigrades Will Inherit The Earth') 64-bit 2020-10-16 04:39:15 / mkvmerge v21.0.0 ('Tardigrades Will Inherit The Earth') 64-bit
FromStats_BitRate : 61
FromStats_Duration : 00:50:07.967000000
FromStats_FrameCount : 789
FromStats_StreamSize : 23165

Text #2
ID : 4
Format : UTF-8
Codec ID : S_TEXT/UTF8
Codec ID/Info : UTF-8 Plain Text
Language : Spanish
Default : No
Forced : No
Statistics Tags Issue : mkvmerge v21.0.0 ('Tardigrades Will Inherit The Earth') 64-bit 2020-10-16 04:39:15 / mkvmerge v21.0.0 ('Tardigrades Will Inherit The Earth') 64-bit
FromStats_BitRate : 63
FromStats_Duration : 00:49:25.424000000
FromStats_FrameCount : 772
FromStats_StreamSize : 23699

Menu
00:03:48.006 : en:Chapter 01
00:10:21.001 : en:Chapter 02
00:27:52.012 : en:Chapter 03
00:35:37.007 : en:Chapter 04
00:49:20.000 : en:Credits





Helstrom S01E08


Helstrom S01E08


Helstrom S01E08


Helstrom S01E08


Helstrom S01E08