Helstrom S01E09

TV Series
Helstrom S01E09

Helstrom S01E09
WEB-DL | MKV | 3840x2160 | English | H265 @ 14438 kbps | E-AC-3 @ 256 kbps | 52 min 9 s | 5.46 GiB
Subtitles: Español, English
Genre: Drama


Daimon and Ana Helstrom are the son and daughter of a mysterious and powerful serial killer. The siblings have a complicated dynamic as they track down the terrorizing worst of humanity — each with their attitude and skills.

3aa976f699ddf7d2961a01c192de0505.mkv (5.5 GB)



General
Unique ID : 175625885714007235856577826618467875652 (0x842050B2F418899D00B3062249CAFB44)
Complete name : ./3aa976f699ddf7d2961a01c192de0505.mkv
Format : Matroska
Format version : Version 4 / Version 2
File size : 5.46 GiB
Duration : 52 min 9 s
Overall bit rate : 15.0 Mb/s
Writing application : mkvmerge v21.0.0 ('Tardigrades Will Inherit The Earth') 64-bit
Writing library : libebml v1.3.5 + libmatroska v1.4.8

Video
ID : 1
Format : HEVC
Format/Info : High Efficiency Video Coding
Format profile : Main 10@L5.1@Main
Codec ID : V_MPEGH/ISO/HEVC
Duration : 52 min 9 s
Bit rate : 14.4 Mb/s
Width : 3 840 pixels
Height : 2 160 pixels
Display aspect ratio : 16:9
Frame rate mode : Constant
Frame rate : 23.976 (24000/1001) FPS
Color space : YUV
Chroma subsampling : 4:2:0
Bit depth : 10 bits
Bits/(Pixel*Frame) : 0.073
Stream size : 5.26 GiB (96%)
Default : Yes
Forced : No
Statistics Tags Issue : mkvmerge v21.0.0 ('Tardigrades Will Inherit The Earth') 64-bit 2020-10-16 04:47:01 / mkvmerge v21.0.0 ('Tardigrades Will Inherit The Earth') 64-bit
FromStats_BitRate : 14735030
FromStats_Duration : 00:52:09.669000000
FromStats_FrameCount : 75037
FromStats_StreamSize : 5764471202

Audio
ID : 2
Format : E-AC-3
Format/Info : Enhanced Audio Coding 3
Format settings, Endianness : Big
Codec ID : A_EAC3
Duration : 52 min 9 s
Bit rate mode : Constant
Bit rate : 256 kb/s
Channel(s) : 6 channels
Channel positions : Front: L C R, Side: L R, LFE
Sampling rate : 48.0 kHz
Frame rate : 187.500 FPS (256 SPF)
Compression mode : Lossy
Stream size : 95.5 MiB (2%)
Language : English
Service kind : Complete Main
Default : Yes
Forced : No
Statistics Tags Issue : mkvmerge v21.0.0 ('Tardigrades Will Inherit The Earth') 64-bit 2020-10-16 04:47:01 / mkvmerge v21.0.0 ('Tardigrades Will Inherit The Earth') 64-bit
FromStats_BitRate : 256000
FromStats_Duration : 00:52:09.792000000
FromStats_FrameCount : 97806
FromStats_StreamSize : 100153344

Text #1
ID : 3
Format : UTF-8
Codec ID : S_TEXT/UTF8
Codec ID/Info : UTF-8 Plain Text
Title : SDH
Language : English
Default : No
Forced : No
Statistics Tags Issue : mkvmerge v21.0.0 ('Tardigrades Will Inherit The Earth') 64-bit 2020-10-16 04:47:01 / mkvmerge v21.0.0 ('Tardigrades Will Inherit The Earth') 64-bit
FromStats_BitRate : 58
FromStats_Duration : 00:51:54.072000000
FromStats_FrameCount : 790
FromStats_StreamSize : 22875

Text #2
ID : 4
Format : UTF-8
Codec ID : S_TEXT/UTF8
Codec ID/Info : UTF-8 Plain Text
Language : Spanish
Default : No
Forced : No
Statistics Tags Issue : mkvmerge v21.0.0 ('Tardigrades Will Inherit The Earth') 64-bit 2020-10-16 04:47:01 / mkvmerge v21.0.0 ('Tardigrades Will Inherit The Earth') 64-bit
FromStats_BitRate : 58
FromStats_Duration : 00:51:16.743000000
FromStats_FrameCount : 761
FromStats_StreamSize : 22677

Menu
00:04:26.016 : en:Chapter 01
00:13:36.016 : en:Chapter 02
00:24:21.020 : en:Chapter 03
00:42:21.023 : en:Chapter 04
00:51:13.004 : en:Credits





Helstrom S01E09


Helstrom S01E09


Helstrom S01E09


Helstrom S01E09


Helstrom S01E09