Helstrom S01E10

TV Series
Helstrom S01E10

Helstrom S01E10
WEB-DL | MKV | 3840x2160 | English | H265 @ 14616 kbps | E-AC-3 @ 256 kbps | 54 min 0 s | 5.72 GiB
Subtitles: Español, English
Genre: Drama


Daimon and Ana Helstrom are the son and daughter of a mysterious and powerful serial killer. The siblings have a complicated dynamic as they track down the terrorizing worst of humanity — each with their attitude and skills.

c79be4289a1dccb021ff6bdb62987238.mkv (5.7 GB)



General
Unique ID : 159051859913629453568903597658970325587 (0x77A84623044E5BDB638E330D9ECD0253)
Complete name : ./c79be4289a1dccb021ff6bdb62987238.mkv
Format : Matroska
Format version : Version 4 / Version 2
File size : 5.72 GiB
Duration : 54 min 0 s
Overall bit rate : 15.2 Mb/s
Writing application : mkvmerge v21.0.0 ('Tardigrades Will Inherit The Earth') 64-bit
Writing library : libebml v1.3.5 + libmatroska v1.4.8

Video
ID : 1
Format : HEVC
Format/Info : High Efficiency Video Coding
Format profile : Main 10@L5.1@Main
Codec ID : V_MPEGH/ISO/HEVC
Duration : 54 min 0 s
Bit rate : 14.6 Mb/s
Width : 3 840 pixels
Height : 2 160 pixels
Display aspect ratio : 16:9
Frame rate mode : Constant
Frame rate : 23.976 (24000/1001) FPS
Color space : YUV
Chroma subsampling : 4:2:0
Bit depth : 10 bits
Bits/(Pixel*Frame) : 0.074
Stream size : 5.51 GiB (96%)
Default : Yes
Forced : No
Statistics Tags Issue : mkvmerge v21.0.0 ('Tardigrades Will Inherit The Earth') 64-bit 2020-10-16 04:50:20 / mkvmerge v21.0.0 ('Tardigrades Will Inherit The Earth') 64-bit
FromStats_BitRate : 14917012
FromStats_Duration : 00:54:00.070000000
FromStats_FrameCount : 77684
FromStats_StreamSize : 6041520527

Audio
ID : 2
Format : E-AC-3
Format/Info : Enhanced Audio Coding 3
Format settings, Endianness : Big
Codec ID : A_EAC3
Duration : 54 min 0 s
Bit rate mode : Constant
Bit rate : 256 kb/s
Channel(s) : 6 channels
Channel positions : Front: L C R, Side: L R, LFE
Sampling rate : 48.0 kHz
Frame rate : 187.500 FPS (256 SPF)
Compression mode : Lossy
Stream size : 98.9 MiB (2%)
Language : English
Service kind : Complete Main
Default : Yes
Forced : No
Statistics Tags Issue : mkvmerge v21.0.0 ('Tardigrades Will Inherit The Earth') 64-bit 2020-10-16 04:50:20 / mkvmerge v21.0.0 ('Tardigrades Will Inherit The Earth') 64-bit
FromStats_BitRate : 256000
FromStats_Duration : 00:54:00.192000000
FromStats_FrameCount : 101256
FromStats_StreamSize : 103686144

Text #1
ID : 3
Format : UTF-8
Codec ID : S_TEXT/UTF8
Codec ID/Info : UTF-8 Plain Text
Title : SDH
Language : English
Default : No
Forced : No
Statistics Tags Issue : mkvmerge v21.0.0 ('Tardigrades Will Inherit The Earth') 64-bit 2020-10-16 04:50:20 / mkvmerge v21.0.0 ('Tardigrades Will Inherit The Earth') 64-bit
FromStats_BitRate : 55
FromStats_Duration : 00:53:50.105000000
FromStats_FrameCount : 829
FromStats_StreamSize : 22371

Text #2
ID : 4
Format : UTF-8
Codec ID : S_TEXT/UTF8
Codec ID/Info : UTF-8 Plain Text
Language : Spanish
Default : No
Forced : No
Statistics Tags Issue : mkvmerge v21.0.0 ('Tardigrades Will Inherit The Earth') 64-bit 2020-10-16 04:50:20 / mkvmerge v21.0.0 ('Tardigrades Will Inherit The Earth') 64-bit
FromStats_BitRate : 55
FromStats_Duration : 00:53:03.100000000
FromStats_FrameCount : 796
FromStats_StreamSize : 21960

Menu
00:02:19.020 : en:Chapter 01
00:08:23.004 : en:Chapter 02
00:21:38.005 : en:Chapter 03
00:34:35.001 : en:Chapter 04
00:53:03.001 : en:Credits





Helstrom S01E10


Helstrom S01E10


Helstrom S01E10


Helstrom S01E10


Helstrom S01E10