High Fidelity S01E01

TV Series
High Fidelity S01E01

High Fidelity S01E01
WEBRip | MKV | 1920x1080 | English | H264 @ 4960 kbps | E-AC-3 @ 256 kbps | 34 min 13 s | 1.25 GiB
Subtitles: Español, English
Genre: Comedy

Rob Brooks, a female record store owner in the rapidly gentrified neighborhood of Crown Heights, Brooklyn revisit past relationships through music and pop culture, while trying to get over her one true love.

f578ebc5fede295be2d6d632ff9b683c.mkv (1.2 GB)



General
Unique ID : 13683475025899366315656555982582992645 (0xA4B5767ED917E7A873463B510D04F05)
Complete name : ./f578ebc5fede295be2d6d632ff9b683c.mkv
Format : Matroska
Format version : Version 4 / Version 2
File size : 1.25 GiB
Duration : 34 min 13 s
Overall bit rate : 5 219 kb/s
Encoded date : UTC 2020-02-14 05:00:45
Writing application : mkvmerge v41.0.0 ('Smarra') 64-bit
Writing library : libebml v1.3.9 + libmatroska v1.5.2

Video
ID : 1
Format : AVC
Format/Info : Advanced Video Codec
Format profile : High@L4
Format settings : CABAC / 4 Ref Frames
Format settings, CABAC : Yes
Format settings, RefFrames : 4 frames
Codec ID : V_MPEG4/ISO/AVC
Duration : 34 min 13 s
Bit rate : 4 961 kb/s
Width : 1 920 pixels
Height : 1 080 pixels
Display aspect ratio : 16:9
Frame rate mode : Constant
Frame rate : 23.976 (24000/1001) FPS
Color space : YUV
Chroma subsampling : 4:2:0
Bit depth : 8 bits
Scan type : Progressive
Bits/(Pixel*Frame) : 0.100
Stream size : 1.19 GiB (95%)
Language : English
Default : Yes
Forced : No

Audio
ID : 2
Format : E-AC-3
Format/Info : Enhanced Audio Coding 3
Format settings, Endianness : Big
Codec ID : A_EAC3
Duration : 34 min 13 s
Bit rate mode : Constant
Bit rate : 256 kb/s
Channel(s) : 6 channels
Channel positions : Front: L C R, Side: L R, LFE
Sampling rate : 48.0 kHz
Frame rate : 187.500 FPS (256 SPF)
Compression mode : Lossy
Stream size : 62.7 MiB (5%)
Language : English
Service kind : Complete Main
Default : Yes
Forced : No

Text #1
ID : 3
Format : UTF-8
Codec ID : S_TEXT/UTF8
Codec ID/Info : UTF-8 Plain Text
Duration : 33 min 59 s
Bit rate : 93 b/s
Count of elements : 750
Stream size : 23.4 KiB (0%)
Title : English
Language : English
Default : No
Forced : No

Text #2
ID : 4
Format : UTF-8
Codec ID : S_TEXT/UTF8
Codec ID/Info : UTF-8 Plain Text
Duration : 33 min 50 s
Bit rate : 89 b/s
Count of elements : 723
Stream size : 22.1 KiB (0%)
Title : Spanish; Castilian
Language : Spanish
Default : No
Forced : No





High Fidelity S01E01


High Fidelity S01E01


High Fidelity S01E01


High Fidelity S01E01


High Fidelity S01E01